<?xml version="1.0" standalone="no"?>
<!DOCTYPE svg PUBLIC "-//W3C//DTD SVG 1.1//EN" "http://www.w3.org/Graphics/SVG/1.1/DTD/svg11.dtd" >
<svg xmlns="http://www.w3.org/2000/svg">
<metadata>Generated by IcoMoon</metadata>
<defs>
<font id="Healthslips-Icon" horiz-adv-x="1024">
<font-face units-per-em="1024" ascent="960" descent="-64" />
<missing-glyph horiz-adv-x="1024" />
<glyph unicode="&#x20;" horiz-adv-x="512" d="" />
<glyph unicode="&#x2d;" glyph-name="dash-regular" d="M1024 426.667c0-26.5-21.5-48-48-48h-928c-26.5 0-48 21.4-48 48s21.5 48 48 48h928c26.6 0 48-21.6 48-48z" />
<glyph unicode="&#x30;" glyph-name="regular" horiz-adv-x="640" d="M320 778.667c123.52 0 224-100.48 224-224v-256c0-123.52-100.48-224-224-224s-224 100.4-224 224v256c0 123.6 100.48 224 224 224zM320 874.647c-176.74 0-320-143.26-320-320v-254.2c0-176.74 143.26-320 320-320s320 143.26 320 320v254.22c0 176.8-143.2 319.98-320 319.98z" />
<glyph unicode="&#x31;" glyph-name="regular1" horiz-adv-x="512" d="M512 26.667c0-26.5-21.5-48-48-48h-416c-26.5 0-48 21.4-48 48s21.5 48 48 48h160v666.1l-134.84-82.9c-22.56-14-52.1-7-66.034 15.6-13.908 22.6-6.845 52.2 15.714 66.080l208 128c14.782 9.124 33.4 9.468 48.56 1.031 15.2-8.511 24.6-24.531 24.6-41.911v-752h160c26.6 0 48-21.6 48-48z" />
<glyph unicode="&#x32;" glyph-name="regular2" horiz-adv-x="640" d="M592-21.333h-544c-19.844 0-37.62 12.218-44.78 30.72s-2.156 39.5 12.532 52.84l411.6 373.4c82.46 71.16 92 190.46 22.6 272.4-34.62 40.9-83.46 65.76-137.5 70.040-54.4 4.344-106.78-12.782-147.68-48l-78.092-69.4c-19.812-17.624-50.24-15.782-67.76 4-17.624 19.812-15.812 50.16 4 67.76l78.68 69.94c61.040 52.56 138.6 78.040 218.4 71.44 79.76-6.282 151.94-43.1 203.2-103.66 102.16-120.62 87.68-303-32.24-406.4l-318.58-289.080h419.62c26.5 0 48-21.5 48-48s-21.4-48-48-48z" />
<glyph unicode="&#x33;" glyph-name="regular3" horiz-adv-x="640" d="M376.6-21.333h-180.32c-88.060 0-165.96 56.12-193.82 139.68-8.376 25.16 5.188 52.34 30.34 60.72 25.22 8.468 52.34-5.218 60.72-30.34 14.8-44.26 56.080-74.060 102.76-74.060h180.34c92.38 0 167.38 75 167.38 167.4 0 92.32-75.1 167.4-167.38 167.4h-200.62c-19.594 0-37.22 11.906-44.54 30.060-7.3 18.14-2.84 38.94 11.26 52.54l298.080 286.6h-392.8c-26.5 0-48 21.5-48 48s21.5 48 48 48h512c19.594 0 37.22-11.906 44.54-30.060 7.312-18.188 2.844-38.96-11.25-52.54l-298.090-286.6h81.44c145.16 0 263.36-118.2 263.36-263.4s-118.2-263.4-263.4-263.4z" />
<glyph unicode="&#x34;" glyph-name="regular4" horiz-adv-x="768" d="M768 282.667c0-26.5-21.5-48-48-48l-78.2-0.002-1.8-207.998c0-26.5-21.5-48-48-48s-48 21.5-48 48v208h-496c-16.844 0-32.44 8.812-41.12 23.24-8.688 14.406-9.188 32.34-1.281 47.22l288 544c12.401 23.38 41.601 32.3 64.801 19.94 23.4-12.376 32.34-41.44 19.938-64.88l-250.618-473.52h416.28v304c0 26.4 21.6 48 48 48s48-21.6 48-48v-304h80c26.6 0 48-21.6 48-48z" />
<glyph unicode="&#x35;" glyph-name="regular5" horiz-adv-x="640" d="M375.4-21.333h-164c-94.94 0-178.94 60.54-209 150.62-8.406 25.16 5.188 52.34 30.34 60.72 25.12 8.438 52.34-5.218 60.72-30.34 17.040-50.8 64.42-85 117.94-85h163.9c93.1 0 168.7 75.6 168.7 168.6s-75.6 168.6-168.6 168.6h-327.4c-14.188 0-27.62 6.25-36.76 17.124-9.114 10.876-12.959 25.076-10.521 39.076l64 366.8c4.001 23.020 23.981 39.8 47.281 39.8h416c26.6 0 48-21.5 48-48s-21.4-48-48-48h-375.66l-47.24-270.8h270.2c145.9 0 264.7-118.6 264.7-264.6s-118.8-264.6-264.6-264.6z" />
<glyph unicode="&#x36;" glyph-name="regular6" horiz-adv-x="640" d="M0 298.667c0-176.44 143.56-320 320-320s320 143.56 320 320-143.6 320-320 320c-11 0-21.6-2.2-32.2-3.2l149.28 180.7c16.876 20.44 14 50.68-6.438 67.56-9.042 7.34-19.842 10.94-30.642 10.94-13.812 0-27.5-5.938-37-17.438-287.38-347.962-363-407.362-363-558.562zM544 298.667c0-123.5-100.5-224-224-224s-224 100.4-224 224 100.5 224 224 224 224-100.6 224-224z" />
<glyph unicode="&#x37;" glyph-name="regular7" horiz-adv-x="640" d="M111.96-21.333c-8.406 0-16.938 2.188-24.66 6.844-22.76 13.624-30.12 43.12-16.468 65.84l436.368 727.316h-459.2c-26.5 0-48 21.5-48 48s21.5 48 48 48h544c17.282 0 33.24-9.312 41.78-24.34 8.5-15.062 8.282-33.54-0.625-48.34l-480-800c-8.995-14.92-24.895-23.32-41.195-23.32z" />
<glyph unicode="&#x38;" glyph-name="regular8" horiz-adv-x="640" d="M519.4 438.267c53.8 45.6 88.6 112.6 88.6 188.4 0 136.74-111.2 248-248 248h-80c-136.74 0-248-111.26-248-248 0-75.76 34.86-142.84 88.56-188.36-71.9-43.44-120.56-121.64-120.56-211.64 0-136.8 111.26-248 248-248h144c136.8 0 248 111.2 248 248 0 90-48.6 168.2-120.6 211.6zM280 778.667h80c83.8 0 152-68.2 152-152s-68.2-152-152-152h-80c-83.82 0-152 68.2-152 152s68.18 152 152 152zM392 74.667h-144c-83.82 0-152 68.18-152 152s68.18 152 152 152h144c83.82 0 152-68.18 152-152s-68.2-152-152-152z" />
<glyph unicode="&#x39;" glyph-name="regular9" horiz-adv-x="640" d="M640 554.667c0 176.44-143.56 320-320 320s-320-143.56-320-320 143.56-320 320-320c11.050 0 21.5 2.164 32.28 3.262l-149.28-180.662c-16.876-20.44-14-50.68 6.438-67.56 8.962-7.44 19.762-11.040 30.562-11.040 13.812 0 27.5 5.938 37 17.438 287.4 347.962 363 407.362 363 558.562zM96 554.667c0 123.5 100.5 224 224 224s224-100.5 224-224-100.4-224-224-224-224 100.4-224 224z" />
<glyph unicode="&#x61;" glyph-name="a-regular" horiz-adv-x="768" d="M764.2 45.267l-336 800c-14.938 35.62-73.56 35.62-88.5 0l-336-800c-10.282-24.44 1.219-52.6 25.66-62.84 24.5-10.312 52.6 1.219 62.84 25.66l67.58 160.9h448.4l67.58-160.9c7.64-18.42 25.44-29.42 44.24-29.42 6.188 0 12.5 1.188 18.562 3.75 24.438 10.25 36.038 38.45 25.638 62.85zM200.2 265.067l183.8 439.4 183.84-437.8h-367.64z" />
<glyph unicode="&#x62;" glyph-name="b-regular" horiz-adv-x="640" d="M500.2 448.867c46.6 45 75.8 108 75.8 177.8 0 136.74-111.2 248-248 248h-280c-26.5 0-48-21.5-48-48v-800c0-26.6 21.5-48 48-48h344c136.8 0 248 111.2 248 248 0 97.8-57.4 181.8-139.8 222.2zM96 778.667h232c83.82 0 152-68.18 152-152s-68.2-152-152-152h-232v304zM392 74.667h-296v304h296c83.82 0 152-68.18 152-152s-68.2-152-152-152z" />
<glyph unicode="&#x63;" glyph-name="c-regular" horiz-adv-x="768" d="M441.6-21.333c-276.2 0-441.4 232.2-441.4 446.2-0.008 215 165.58 449.8 441.4 449.8 0 0-0.031 0 0 0 189.9 0 326.4-124.9 326.4-165.14 0-18.286-14.222-48.040-48-48.040-48.4-0.020-96 117.18-278.4 117.18-216 0-345.52-182.2-345.52-352 0-166.9 129.34-352 345.6-352 182.2 0 230.2 117.16 278.4 117.16 18.244 0 48.020-14.158 48.020-48.020-0.1-39.54-135.5-165.14-326.5-165.14z" />
<glyph unicode="&#x64;" glyph-name="d-regular" horiz-adv-x="768" d="M309.4-21.333h-261.4c-26.5 0-48 21.4-48 48v800c0 26.5 21.5 48 48 48h261.4c252.8 0 458.6-201 458.6-448s-205.8-448-458.6-448zM96 74.667h213.4c200 0 362.6 158 362.6 352s-162.68 352-362.6 352h-213.4v-704z" />
<glyph unicode="&#x65;" glyph-name="e-regular" horiz-adv-x="640" d="M640 26.667c0-26.5-21.5-48-48-48h-544c-26.5 0-48 21.4-48 48v800c0 26.5 21.5 48 48 48h544c26.6 0 48-21.5 48-48s-21.4-48-48-48h-496v-304h368c26.5 0 48-21.52 48-48.020 0-26.58-21.4-47.98-48-47.98h-368v-304h496c26.6 0 48-21.6 48-48z" />
<glyph unicode="&#x66;" glyph-name="f-regular" horiz-adv-x="640" d="M640 826.667c0-26.5-21.5-48-48-48h-496v-304h368c26.5 0 48-21.52 48-48.020s-21.4-47.98-48-47.98h-368v-352c0-26.6-21.5-48-48-48s-48 21.4-48 48v800c0 26.5 21.5 48 48 48h544c26.6 0 48-21.5 48-48z" />
<glyph unicode="&#x67;" glyph-name="g-regular" horiz-adv-x="896" d="M444.2-21.333c-264.4 0-444.2 213.4-444.2 446.6 0 248.8 200.8 449.4 446.2 449.4 192.14 0 330.8-124.76 330.8-165.58 0-37.72-34.42-48.080-48.020-48.080-49 0-96.84 117.64-282.8 117.64-192.66 0-350.2-156.26-350.2-353.2 0-74.72 57.82-351.2 350-351.2 106.76 0 323 69.94 351 302.8h-301.2c-26.38-0.18-47.78 21.42-47.78 48.020s21.5 48.060 46.2 48.060h350.2c26.5 0 46.2-21.52 46.2-48.060 3.6-284.6-230.2-444.6-446.4-446.4z" />
<glyph unicode="&#x68;" glyph-name="h-regular" horiz-adv-x="768" d="M768 826.667v-800c0-26.5-21.5-48-48-48s-48 21.5-48 48v400h-576v-400c0-26.6-21.5-48-48-48s-48 21.4-48 48v800c0 26.5 21.5 48 48 48s48-21.5 48-48v-304h576v304c0 26.5 21.6 48 48 48s48-21.5 48-48z" />
<glyph unicode="&#x69;" glyph-name="i-regular" horiz-adv-x="640" d="M640 26.667c0-26.5-21.5-48-48-48h-544c-26.5 0-48 21.4-48 48s21.5 48 48 48h224v704h-224c-26.5 0-48 21.5-48 48s21.5 48 48 48h544c26.6 0 48-21.5 48-48s-21.4-48-48-48h-224v-704h224c26.6 0 48-21.6 48-48z" />
<glyph unicode="&#x6a;" glyph-name="j-regular" horiz-adv-x="640" d="M320-21.333c-176.44 0-320 138.020-320 307.6v92.4c0 26.4 21.5 48 48 48s48-21.6 48-48v-92.38c0-116.62 100.5-211.62 224-211.62s224 94.94 224 211.6v540.4c0 26.5 21.6 48 48 48s48-21.5 48-48v-540.4c0-169.6-143.6-307.6-320-307.6z" />
<glyph unicode="&#x6b;" glyph-name="k-regular" horiz-adv-x="640" d="M631.2 54.267c15.312-21.66 10.124-51.6-11.5-66.9-8.5-5.9-18.1-8.7-27.7-8.7-15.062 0-29.94 7.062-39.24 20.32l-297.76 423.48-159-161.2v-234.6c0-26.6-21.5-48-48-48s-48 21.4-48 48v800c0 26.5 21.5 48 48 48s48-21.5 48-48v-429.4l462 463.2c18.688 18.688 49.060 18.844 67.88 0.094 18.812-18.718 18.812-49.12 0.125-67.9l-302.6-303.4c0.516-0.656 1.273-0.977 1.762-1.668l306.033-433.326z" />
<glyph unicode="&#x6c;" glyph-name="l-regular" horiz-adv-x="640" d="M592-21.333h-480c-26.5 0-48 21.4-48 48v800c0 26.5 21.5 48 48 48s48-21.5 48-48v-752h432c26.5 0 48-21.5 48-48s-21.4-48-48-48z" />
<glyph unicode="&#x6d;" glyph-name="m-regular" horiz-adv-x="896" d="M848-21.333c-26.5 0-48 21.5-48 48v639.8l-311.8-474c-17.75-27-62.5-27-80.26 0l-311.94 474v-639.8c0-26.6-21.5-48-48-48s-48 21.4-48 48v800c0 21.22 13.938 39.9 34.24 45.96 20.38 6.156 42.18-1.875 53.88-19.594l359.88-546.966 359.8 547c11.624 17.718 33.32 25.78 53.88 19.594 20.32-6.094 34.32-24.774 34.32-45.994v-800c0-26.6-21.4-48-48-48z" />
<glyph unicode="&#x6e;" glyph-name="n-regular" horiz-adv-x="768" d="M720-21.333c-13.876 0-27.44 6.062-36.76 17.124l-587.24 699.076v-668.2c0-26.6-21.5-48-48-48s-48 21.4-48 48v800c0 20.18 12.624 38.18 31.56 45.1 18.876 6.938 40.12 1.25 53.18-14.218l587.26-699.082v668.2c0 26.5 21.6 48 48 48s48-21.5 48-48v-800c0-20.18-12.624-38.18-31.56-45.1-5.44-1.9-10.84-2.9-16.44-2.9z" />
<glyph unicode="&#x6f;" glyph-name="o-regular" horiz-adv-x="896" d="M448-21.333c-247 0-448 201-448 448s201 448 448 448 448-201 448-448-201-448-448-448zM448 778.667c-195.8 0-352-156.2-352-352s157.94-352 352-352 352 157.9 352 352-158 352-352 352z" />
<glyph unicode="&#x70;" glyph-name="p-regular" horiz-adv-x="640" d="M48-21.333c-26.5 0-48 21.4-48 48v800c0 26.5 21.5 48 48 48h288c167.6 0 304-136.4 304-304s-136.38-304-304-304h-240v-240c0-26.6-21.5-48-48-48zM96 362.667h240c114.68 0 208 93.32 208 208s-93.4 208-208 208h-240v-416z" />
<glyph unicode="&#x71;" glyph-name="q-regular" horiz-adv-x="896" d="M775.8 122.267c74.34 80 120.2 186.78 120.2 304.4 0 247-201 448-446.2 448s-449.8-201-449.8-448 201-448 446.2-448c94.94 0 182.94 29.9 255.4 80.5l107.86-127.48c11.34-11.22 24.94-17.020 38.54-17.020 32.040 0 47.98 27.4 47.98 48.040 0 10.952-3.728 21.96-11.356 30.96l-108.824 128.6zM448 74.667c-194.1 0-352 157.9-352 352s156.2 352 352 352 352-157.9 352-352c0-88.2-32.84-168.72-86.64-230.6l-180.7 213.6c-9.468 11.218-23.020 17.002-36.68 17.002-32.26 0-46.2-27.76-46.2-48.040 0-10.952 3.728-21.96 11.356-30.96l181.86-215c-57.396-36.602-123.596-58.002-194.996-58.002z" />
<glyph unicode="&#x72;" glyph-name="r-regular" horiz-adv-x="640" d="M405.4 364.867c131 11.086 234.6 119.8 234.6 253.6-1.8 141.14-115 256.2-256.2 256.2h-335.8c-26.5 0-48-21.5-48-48v-800c0-26.6 21.5-48 48-48s48 21.5 48 48v336h192.32l264.8-364.2c9.48-13 24.080-19.8 38.88-19.8 9.812 0 19.688 2.968 28.18 9.188 21.44 15.594 26.18 45.6 10.594 67.040l-225.374 309.972zM96 778.667h288c88.22 0 160-71.78 160-160s-71.8-160-160-160h-288v320z" />
<glyph unicode="&#x73;" glyph-name="s-regular" horiz-adv-x="768" d="M699.8 173.267c-12.218-69.76-49.82-123.96-108.68-156.78-49.38-27.54-108.46-37.68-168.76-37.68-134.72 0-275.6 50.66-328.2 71.72-24.62 9.844-36.6 37.78-26.76 62.38 9.876 24.62 37.82 36.56 62.38 26.76 174.22-69.66 333.2-84.68 414.6-39.32 33.72 18.782 53.62 48.060 60.88 89.5 18.782 107.18-56.96 140.32-234.4 190.4-150.78 42.56-338.4 95.56-302.8 299.4 10.688 60.82 45.56 112.94 98.22 146.78 91.72 59 234.4 63.96 422.2 14.718 27.52-6.798 42.92-32.978 36.32-58.638-6.688-25.66-33.060-40.88-58.54-34.4-202.46 52.62-301.060 27.66-347.86-2.54-38.34-24.5-51.44-58.5-55.64-82.7-18.782-107.12 56.96-140.26 234.2-190.34 150.84-42.46 338.64-95.46 302.84-299.26z" />
<glyph unicode="&#x74;" glyph-name="t-regular" horiz-adv-x="768" d="M768 826.667c0-26.5-21.5-48-48-48h-288v-752c0-26.5-21.5-48.020-48-48.020s-48 21.42-48 48.020v752h-288c-26.5 0-48 21.5-48 48s21.5 48 48 48h672c26.6 0 48-21.5 48-48z" />
<glyph unicode="&#x75;" glyph-name="u-regular" horiz-adv-x="768" d="M384-21.333c-211.8 0-384 169.52-384 377.8v470.2c0 26.5 21.5 48 48 48s48-21.5 48-48v-470.2c0-155.4 129.2-281.8 288-281.8s288 126.44 288 281.8v470.2c0 26.5 21.6 48 48 48s48-21.5 48-48v-470.2c0-208.4-172.2-377.8-384-377.8z" />
<glyph unicode="&#x76;" glyph-name="v-regular" horiz-adv-x="768" d="M384-21.333c-19.312 0-36.78 11.606-44.24 29.42l-336 800c-10.292 24.42 1.208 52.58 25.64 62.82 24.42 10.36 52.6-1.2 62.86-25.64l291.74-694.6 291.8 694.6c10.25 24.46 38.22 36.060 62.84 25.66 24.44-10.25 35.94-38.4 25.66-62.84l-336-800c-7.5-17.82-24.9-29.42-44.3-29.42z" />
<glyph unicode="&#x77;" glyph-name="w-regular" horiz-adv-x="1152" d="M816-21.333c-0.437 0-0.875 0-1.312 0.031-20.68 0.531-38.72 14.344-44.66 34.18l-194.028 646.789-195.8-646.8c-5.938-19.844-23.96-33.66-44.66-34.18-20.66-0.312-39.44 12.218-46.46 31.72l-288 800c-9 24.94 3.968 52.44 28.9 61.4 26.7 9.080 54.18-3.9 63.18-28.9l238.64-663.040 198.2 660.58c6.2 20.32 24.8 34.2 46 34.2s39.88-13.886 45.96-34.2l198.18-660.6 238.6 663c8.968 25 36.44 37.96 61.4 28.9 24.94-8.968 37.9-36.46 28.9-61.4l-288-800c-6.84-19.080-24.84-31.68-45.040-31.68z" />
<glyph unicode="&#x78;" glyph-name="x-regular" horiz-adv-x="768" d="M756.8 57.467c17.062-20.32 14.406-50.56-5.876-67.62-9.124-7.58-19.924-11.18-30.924-11.18-13.688 0-27.28 5.812-36.78 17.124l-299.22 356.276-299.2-356.2c-9.54-11.4-23.14-17.2-36.84-17.2-10.906 0-21.84 3.688-30.84 11.25-20.28 17.062-22.94 47.32-5.876 67.62l310.156 369.13-310.15 369.12c-17.062 20.32-14.406 50.56 5.876 67.62 20.254 17.1 50.554 14.48 67.634-5.86l299.24-356.28 299.2 356.2c17.094 20.34 47.34 22.94 67.62 5.876s22.94-47.32 5.876-67.62l-310.096-369.056 310.2-369.2z" />
<glyph unicode="&#x79;" glyph-name="y-regular" horiz-adv-x="768" d="M758.8 798.507l-326.8-451.44v-320.4c0-26.5-21.5-48.020-48-48.020s-48 21.42-48 48.020v320.4l-326.874 451.44c-15.564 21.48-10.751 51.5 10.75 67.040 21.44 15.562 51.44 10.782 67-10.718l297.124-410.362 297.2 410.4c15.562 21.44 45.56 26.18 67 10.718 21.4-15.578 26.2-45.598 10.6-67.078z" />
<glyph unicode="&#x7a;" glyph-name="z-regular" horiz-adv-x="768" d="M720-21.333h-672c-18.688 0-35.62 10.812-43.5 27.72s-5.25 36.88 6.75 51.16l605.75 721.12h-569c-26.5 0-48 21.5-48 48s21.5 48 48 48h672c18.688 0 35.62-10.812 43.5-27.72s5.25-36.88-6.75-51.16l-605.75-721.12h569c26.5 0 48-21.5 48-48s-21.4-48-48-48z" />
<glyph unicode="&#xe900;" glyph-name="quote" d="M797.606 315.077c125.154 0 226.394 103.386 226.394 229.744s-102.4 229.744-227.554 229.744c-125.158 0-227.558-103.385-227.558-229.744 0-253.889 203.639-459.487 455.113-459.487 0 0-149.073 56.269-226.394 229.743zM455.113 544.821c0 126.359-102.401 229.744-227.557 229.744s-227.556-103.385-227.556-229.744c0-253.889 203.639-459.487 455.112-459.487 0 0-149.073 56.269-226.397 229.743 125.156 0 226.397 103.386 226.397 229.744z" />
<glyph unicode="&#xe901;" glyph-name="check" d="M998.293 784.959c34.274-34.277 34.274-89.851 0-124.128l-585.144-585.141c-34.277-34.278-89.85-34.278-124.128 0l-263.314 263.313c-34.277 34.274-34.277 89.852 0 124.126 34.277 34.278 89.851 34.278 124.127 0l201.251-201.25 523.078 523.080c34.278 34.277 89.852 34.277 124.13 0z" />
<glyph unicode="&#xe902;" glyph-name="promise-arrow" d="M507.785 938.667l-422.451-188.823v-328.553h91.34v268.833l331.112 147.986 331.115-147.986v-222.877c0-210.778-141.585-405.491-331.115-457.911-113.036 31.364-213.657 115.981-273.825 230.042 27.203 56.585 128.016 226.974 359.214 234.334l-78.985-57.604v-96.525l273.374 200.28-273.374 200.217v-96.524l78.665-57.607c-156.565-4.353-263.329-71.753-329.002-134.417-52.89-49.916-94.809-110.298-123.087-177.301l-6.849-18.372 8.449-17.664c72.201-151.637 204.826-264.162 354.54-300.838l10.88-2.688 10.82 2.688c234.65 57.609 411.635 294.118 411.635 550.020v282.212l-422.455 189.079z" />
<glyph unicode="&#xe903;" glyph-name="promise-check" d="M507.622-85.333l-10.82 2.688c-234.54 57.613-411.469 294.135-411.469 550.054v282.358l422.481 188.899 422.477-188.835 0.32-162.975-455.317-396.299-185.186 172.194 61.964 67.533 125.206-116.437 361.54 315.129v61.26l-331.068 148.060-330.944-147.996v-222.891c0-210.79 141.53-405.517 330.944-457.941 164.126 45.577 297.143 202.534 325.436 385.865l7.040 45.385 90.193-14.144-6.976-45.389c-16.887-108.911-63.945-210.914-135.834-294.451-73.741-85.777-166.43-144.35-268.851-169.506l-11.136-2.56z" />
<glyph unicode="&#xe904;" glyph-name="promise-dollar" d="M507.84 938.667l-422.507-186.863v-279.492c0.583-83.75 19.325-166.379 54.935-242.185s87.238-142.985 151.325-196.902l34.953-29.193 58.767 69.585-34.953 29.257c-53.946 45.355-97.41 101.871-127.395 165.653-29.984 63.778-45.774 133.308-46.281 203.785v220.47l331.156 146.405 331.153-146.405v-220.47c0-191.411-119.326-369.438-285.508-437.487v145.638c70.417 15.424 120.862 66.769 120.862 129.566 0 92.122-87.706 134.114-169.195 134.114-20.297 0-67.665 3.712-69.713 38.409 1.088 10.142 6.012 19.486 13.76 26.121 7.377 6.877 16.162 12.061 25.749 15.191s19.742 4.128 29.756 2.925c61.517-4.929 94.421-22.792 94.741-22.984l22.729 39.436 23.172 39.114c-4.032 2.369-35.401 19.909-92.058 29.832v115.229h-91.349v-113.116c-28.962-5.939-55.618-20.045-76.819-40.65-27.655-26.951-43.019-63.055-41.035-96.472 3.329-57.037 47.5-123.678 160.874-123.678 35.913 0 77.841-11.332 77.841-43.213 0-23.492-33.801-43.337-73.809-43.337-43.597 0-103.578 30.020-122.911 41.609l-47.18-77.841c38.313-22.519 79.787-39.155 123.038-49.357v-266.692l56.525 13.764c234.684 57.037 411.691 290.953 411.691 544.137v279.236l-422.315 186.863z" />
<glyph unicode="&#xe905;" glyph-name="promise-i" d="M507.422 554.666c35.947 0 65.088 28.998 65.088 64.768s-29.141 64.768-65.088 64.768c-35.947 0-65.088-28.998-65.088-64.768s29.141-64.768 65.088-64.768zM507.733 938.667l-422.4-186.816v-279.424c0-253.12 176.96-486.976 411.584-544l56.512-13.76v573.376h-102.144v-448.448c-160.64 71.168-275.2 245.504-275.2 432.832v220.416l331.648 146.368 331.072-146.368v-220.416c-0.555-69.495-15.94-138.069-45.137-201.135-29.193-63.066-71.518-119.172-124.143-164.561l-34.56-29.632 59.584-68.864 34.56 29.632c62.507 53.952 112.777 120.627 147.443 195.571 34.667 74.94 52.937 156.42 53.581 238.989v279.424l-422.4 186.816z" />
<glyph unicode="&#xe906;" glyph-name="arrow-down" d="M512 853.334c29.764 0 53.897-24.916 53.897-55.652v-607.674l195.435 201.809c21.043 21.734 55.168 21.734 76.215 0s21.047-56.973 0-78.703l-287.437-296.815c-21.047-21.73-55.172-21.73-76.22 0l-287.438 296.815c-21.047 21.73-21.047 56.969 0 78.703s55.171 21.734 76.219 0l195.433-201.809v607.674c0 30.736 24.132 55.652 53.897 55.652z" />
<glyph unicode="&#xe907;" glyph-name="arrow-export" d="M474.287 837.713c20.83 20.828 54.596 20.828 75.426 0l160-160c20.826-20.828 20.826-54.597 0-75.424-20.83-20.828-54.596-20.828-75.426 0l-68.954 68.954v-351.242c0-29.457-23.876-53.333-53.333-53.333s-53.333 23.876-53.333 53.333v351.242l-68.954-68.954c-20.828-20.828-54.597-20.828-75.424 0s-20.828 54.597 0 75.424l159.999 160zM138.667 480c29.455 0 53.333-23.876 53.333-53.333v-320h640v320c0 29.457 23.876 53.333 53.333 53.333s53.333-23.876 53.333-53.333v-373.333c0-29.457-23.876-53.333-53.333-53.333h-746.667c-29.455 0-53.333 23.876-53.333 53.333v373.333c0 29.457 23.878 53.333 53.333 53.333z" />
<glyph unicode="&#xe908;" glyph-name="arrow-left-down" d="M917.837 832.506c27.772-27.77 27.772-72.795 0-100.566l-589.715-589.718h302.397c39.275 0 71.108-31.838 71.108-71.108 0-39.275-31.834-71.113-71.108-71.113h-474.075c-39.274 0-71.111 31.838-71.111 71.113v474.073c0 39.273 31.837 71.111 71.111 71.111s71.111-31.837 71.111-71.111v-302.395l589.716 589.715c27.772 27.771 72.798 27.771 100.565 0z" />
<glyph unicode="&#xe909;" glyph-name="arrow-left-up" d="M156.445 853.334h474.075c39.275 0 71.108-31.837 71.108-71.111s-31.834-71.111-71.108-71.111h-302.397l589.715-589.716c27.772-27.772 27.772-72.798 0-100.565-27.767-27.772-72.794-27.772-100.565 0l-589.716 589.715v-302.397c0-39.275-31.837-71.108-71.111-71.108s-71.111 31.834-71.111 71.108v474.075c0 39.274 31.837 71.111 71.111 71.111z" />
<glyph unicode="&#xe90a;" glyph-name="arrow-left" d="M477.15 752.215c21.734-21.047 21.734-55.171 0-76.219l-201.808-195.433h607.675c30.733 0 55.65-24.132 55.65-53.897s-24.917-53.897-55.65-53.897h-607.675l201.808-195.435c21.734-21.043 21.734-55.168 0-76.215s-56.971-21.047-78.705 0l-296.812 287.437c-21.733 21.047-21.733 55.172 0 76.22l296.812 287.438c21.734 21.047 56.97 21.047 78.705 0z" />
<glyph unicode="&#xe90b;" glyph-name="arrow-log-in" d="M85.333 800c0 29.455 23.878 53.333 53.333 53.333h373.333c29.457 0 53.333-23.878 53.333-53.333s-23.876-53.333-53.333-53.333h-320v-640h320c29.457 0 53.333-23.876 53.333-53.333s-23.876-53.333-53.333-53.333h-373.333c-29.455 0-53.333 23.876-53.333 53.333v746.667zM603.046 624.379c20.826-20.828 20.826-54.597 0-75.424l-68.954-68.954h351.241c29.457 0 53.333-23.876 53.333-53.333s-23.876-53.333-53.333-53.333h-351.241l68.954-68.954c20.826-20.83 20.826-54.596 0-75.426-20.83-20.826-54.596-20.826-75.426 0l-159.999 160c-20.828 20.83-20.828 54.596 0 75.426l159.999 159.999c20.83 20.828 54.596 20.828 75.426 0z" />
<glyph unicode="&#xe90c;" glyph-name="arrow-log-out" d="M85.333 800c0 29.455 23.878 53.333 53.333 53.333h373.333c29.457 0 53.333-23.878 53.333-53.333s-23.876-53.333-53.333-53.333h-320v-640h320c29.457 0 53.333-23.876 53.333-53.333s-23.876-53.333-53.333-53.333h-373.333c-29.455 0-53.333 23.876-53.333 53.333v746.667zM687.62 624.379c20.83 20.828 54.596 20.828 75.426 0l160-159.999c20.826-20.83 20.826-54.596 0-75.426l-160-160c-20.83-20.826-54.596-20.826-75.426 0-20.826 20.83-20.826 54.596 0 75.426l68.954 68.954h-351.241c-29.455 0-53.333 23.876-53.333 53.333s23.878 53.333 53.333 53.333h351.241l-68.954 68.954c-20.826 20.828-20.826 54.597 0 75.424z" />
<glyph unicode="&#xe90d;" glyph-name="arrow-right-down" d="M106.161 832.506c27.77 27.771 72.795 27.771 100.566 0l589.718-589.715v302.395c0 39.273 31.838 71.111 71.108 71.111 39.275 0 71.113-31.837 71.113-71.111v-474.073c0-39.275-31.838-71.113-71.113-71.113h-474.073c-39.273 0-71.111 31.838-71.111 71.113 0 39.27 31.837 71.108 71.111 71.108h302.395l-589.715 589.718c-27.771 27.771-27.771 72.796 0 100.566z" />
<glyph unicode="&#xe90e;" glyph-name="arrow-right-up" d="M393.481 711.112c-39.273 0-71.111 31.837-71.111 71.111s31.837 71.111 71.111 71.111h474.073c39.275 0 71.113-31.837 71.113-71.111v-474.075c0-39.275-31.838-71.108-71.113-71.108-39.27 0-71.108 31.834-71.108 71.108v302.398l-589.718-589.715c-27.771-27.772-72.796-27.772-100.566 0-27.771 27.767-27.771 72.794 0 100.565l589.715 589.716h-302.395z" />
<glyph unicode="&#xe90f;" glyph-name="arrow-right" d="M546.85 752.215c21.734 21.047 56.973 21.047 78.703 0l296.815-287.438c10.436-10.108 16.299-23.817 16.299-38.11s-5.862-28.002-16.299-38.11l-296.815-287.437c-21.73-21.047-56.969-21.047-78.703 0s-21.734 55.172 0 76.215l201.809 195.435h-607.674c-30.736 0-55.652 24.132-55.652 53.897s24.916 53.897 55.652 53.897h607.674l-201.809 195.433c-21.734 21.047-21.734 55.172 0 76.219z" />
<glyph unicode="&#xe910;" glyph-name="arrow-share" d="M636.446 746.667c-29.457 0-53.333 23.878-53.333 53.333s23.876 53.333 53.333 53.333h248.887c29.457 0 53.333-23.878 53.333-53.333v-248.889c0-29.455-23.876-53.332-53.333-53.332s-53.333 23.877-53.333 53.332v120.131l-246.733-246.734c-20.826-20.826-54.596-20.826-75.426 0-20.826 20.83-20.826 54.601 0 75.426l246.733 246.733h-120.128zM85.333 604.445c0 29.455 23.878 53.333 53.333 53.333h195.555c29.455 0 53.333-23.878 53.333-53.333s-23.878-53.333-53.333-53.333h-142.222v-444.445h444.446v142.221c0 29.457 23.876 53.333 53.333 53.333 29.453 0 53.333-23.876 53.333-53.333v-195.554c0-29.457-23.881-53.333-53.333-53.333h-551.113c-14.145 0-27.71 5.619-37.712 15.62s-15.621 23.569-15.621 37.713v551.111z" />
<glyph unicode="&#xe911;" glyph-name="arrow-up" d="M473.89 837.034c21.047 21.733 55.172 21.733 76.22 0l287.437-296.812c21.047-21.734 21.047-56.97 0-78.705s-55.172-21.734-76.215 0l-195.435 201.808v-607.675c0-30.733-24.132-55.65-53.897-55.65s-53.897 24.917-53.897 55.65v607.675l-195.433-201.808c-21.047-21.734-55.172-21.734-76.219 0s-21.047 56.972 0 78.705l287.438 296.812z" />
<glyph unicode="&#xe912;" glyph-name="calendar-check" d="M327.111 853.334c23.564 0 42.667-19.103 42.667-42.667v-85.333h284.443v85.333c0 23.564 19.102 42.667 42.667 42.667s42.667-19.103 42.667-42.667v-85.333h42.667c86.404 0 156.446-70.042 156.446-156.445v-156.404c0-23.565-19.102-42.667-42.667-42.667s-42.667 19.102-42.667 42.667v42.628h-682.667v-298.667c0-39.275 31.837-71.113 71.111-71.113h227.555c23.565 0 42.667-19.102 42.667-42.667s-19.102-42.667-42.667-42.667h-227.555c-86.402 0-156.445 70.042-156.445 156.446v412.443c0 86.402 70.042 156.445 156.445 156.445h42.667v85.333c0 23.564 19.102 42.667 42.667 42.667zM241.778 640c-39.274 0-71.111-31.837-71.111-71.111v-28.444h682.667v28.444c0 39.274-31.838 71.111-71.113 71.111h-540.443zM926.17 243.503c16.661-16.661 16.661-43.678 0-60.339l-170.667-170.667c-16.661-16.661-43.678-16.661-60.339 0l-71.113 71.113c-16.661 16.661-16.661 43.674 0 60.339 16.666 16.661 43.678 16.661 60.339 0l40.943-40.943 140.497 140.497c16.661 16.661 43.678 16.661 60.339 0z" />
<glyph unicode="&#xe913;" glyph-name="calendar-close" d="M926.17 243.503c16.661-16.661 16.661-43.678 0-60.339l-170.667-170.667c-16.661-16.661-43.678-16.661-60.339 0s-16.661 43.678 0 60.339l170.667 170.667c16.661 16.661 43.678 16.661 60.339 0zM695.164 243.503c16.661 16.661 43.678 16.661 60.339 0l170.667-170.667c16.661-16.661 16.661-43.678 0-60.339s-43.678-16.661-60.339 0l-170.667 170.667c-16.661 16.661-16.661 43.678 0 60.339zM85.333 568.889c0 86.402 70.042 156.445 156.445 156.445h540.443c86.404 0 156.446-70.042 156.446-156.445v-156.443c0-23.565-19.102-42.667-42.667-42.667s-42.667 19.102-42.667 42.667v156.443c0 39.274-31.838 71.111-71.113 71.111h-540.443c-39.274 0-71.111-31.837-71.111-71.111v-412.443c0-39.275 31.837-71.113 71.111-71.113h284.392c23.565 0 42.667-19.102 42.667-42.667s-19.102-42.667-42.667-42.667h-284.392c-86.402 0-156.445 70.042-156.445 156.446v412.443zM327.111 853.334c23.564 0 42.667-19.103 42.667-42.667v-128c0-23.564-19.103-42.667-42.667-42.667s-42.667 19.103-42.667 42.667v128c0 23.564 19.102 42.667 42.667 42.667zM696.887 853.334c23.565 0 42.667-19.103 42.667-42.667v-128c0-23.564-19.102-42.667-42.667-42.667s-42.667 19.103-42.667 42.667v128c0 23.564 19.102 42.667 42.667 42.667zM896 455.113h-768v85.332h768v-85.332z" />
<glyph unicode="&#xe914;" glyph-name="calendar" d="M85.333 568.889c0 86.402 70.042 156.445 156.445 156.445h540.443c86.404 0 156.446-70.042 156.446-156.445v-412.443c0-86.404-70.042-156.446-156.446-156.446h-540.443c-86.402 0-156.445 70.042-156.445 156.446v412.443zM241.778 640c-39.274 0-71.111-31.837-71.111-71.111v-412.443c0-39.275 31.837-71.113 71.111-71.113h540.443c39.275 0 71.113 31.838 71.113 71.113v412.443c0 39.274-31.838 71.111-71.113 71.111h-540.443zM327.111 853.334c23.564 0 42.667-19.103 42.667-42.667v-128c0-23.564-19.103-42.667-42.667-42.667s-42.667 19.102-42.667 42.667v128c0 23.564 19.102 42.667 42.667 42.667zM696.887 853.334c23.565 0 42.667-19.103 42.667-42.667v-128c0-23.564-19.102-42.667-42.667-42.667s-42.667 19.102-42.667 42.667v128c0 23.564 19.102 42.667 42.667 42.667zM896 455.113h-768v85.332h768v-85.332z" />
<glyph unicode="&#xe915;" glyph-name="chevron-down" d="M23.678 701.655c31.571 31.571 82.757 31.571 114.328 0l373.994-373.992 373.995 373.992c31.569 31.571 82.756 31.571 114.325 0 31.573-31.571 31.573-82.757 0-114.328l-431.155-431.159c-31.573-31.569-82.756-31.569-114.33 0l-431.157 431.159c-31.571 31.571-31.571 82.757 0 114.328z" />
<glyph unicode="&#xe916;" glyph-name="chevron-left" d="M786.807 914.989c31.812-31.571 31.812-82.757 0-114.328l-376.826-373.994 376.826-373.995c31.812-31.569 31.812-82.756 0-114.325-31.808-31.573-83.383-31.573-115.191 0l-434.425 431.155c-31.81 31.573-31.81 82.756 0 114.33l434.425 431.157c31.808 31.571 83.383 31.571 115.191 0z" />
<glyph unicode="&#xe917;" glyph-name="chevron-right" d="M237.191 914.989c31.81 31.571 83.384 31.571 115.194 0l434.423-431.157c31.812-31.573 31.812-82.756 0-114.33l-434.423-431.155c-31.81-31.573-83.384-31.573-115.194 0-31.81 31.569-31.81 82.756 0 114.325l376.825 373.995-376.825 373.994c-31.81 31.571-31.81 82.757 0 114.328z" />
<glyph unicode="&#xe918;" glyph-name="chevron-up" d="M454.835 701.655c31.573 31.571 82.756 31.571 114.33 0l431.155-431.157c31.573-31.573 31.573-82.756 0-114.33-31.569-31.569-82.756-31.569-114.325 0l-373.995 373.995-373.994-373.995c-31.571-31.569-82.757-31.569-114.328 0-31.571 31.573-31.571 82.756 0 114.33l431.157 431.157z" />
<glyph unicode="&#xe919;" glyph-name="edit" d="M826.842 741.506c-15.249 15.247-39.97 15.247-55.215 0l-368.385-368.386v-55.211h55.212l368.388 368.384c15.245 15.247 15.245 39.966 0 55.213zM700.638 812.494c54.451 54.452 142.737 54.452 197.188 0 54.455-54.452 54.455-142.737 0-197.189l-383.087-383.088c-9.412-9.412-22.178-14.703-35.494-14.703h-126.199c-27.723 0-50.196 22.477-50.196 50.197v126.199c0 13.316 5.289 26.082 14.702 35.494l383.086 383.088zM85.333 568.889c0 27.723 22.473 50.196 50.196 50.196h184.052c27.722 0 50.196-22.473 50.196-50.196s-22.474-50.196-50.196-50.196h-133.856v-418.302h418.302v133.858c0 27.721 22.473 50.197 50.193 50.197 27.725 0 50.197-22.477 50.197-50.197v-184.051c0-27.725-22.473-50.197-50.197-50.197h-518.691c-27.723 0-50.196 22.473-50.196 50.197v518.691z" />
<glyph unicode="&#xe91a;" glyph-name="search-minus" d="M409.6 836.267c-169.662 0-307.2-137.538-307.2-307.2 0-169.664 137.538-307.2 307.2-307.2 169.664 0 307.2 137.536 307.2 307.2 0 169.662-137.536 307.2-307.2 307.2zM0 529.067c0 226.216 183.384 409.6 409.6 409.6 226.214 0 409.6-183.384 409.6-409.6 0-94.656-32.107-181.811-86.025-251.17l275.827-275.827c19.998-19.994 19.998-52.412 0-72.405-19.994-19.998-52.412-19.998-72.405 0l-275.827 275.827c-69.359-53.918-156.514-86.025-251.17-86.025-226.216 0-409.6 183.386-409.6 409.6zM221.867 529.067c0 28.277 22.923 51.2 51.2 51.2h273.067c28.275 0 51.2-22.923 51.2-51.2 0-28.275-22.925-51.2-51.2-51.2h-273.067c-28.277 0-51.2 22.925-51.2 51.2z" />
<glyph unicode="&#xe91b;" glyph-name="search-plus" d="M409.6 836.267c-169.662 0-307.2-137.538-307.2-307.2 0-169.664 137.538-307.2 307.2-307.2 169.664 0 307.2 137.536 307.2 307.2 0 169.662-137.536 307.2-307.2 307.2zM0 529.067c0 226.216 183.384 409.6 409.6 409.6 226.214 0 409.6-183.384 409.6-409.6 0-94.656-32.107-181.811-86.025-251.17l275.827-275.827c19.998-19.994 19.998-52.412 0-72.405-19.994-19.998-52.412-19.998-72.405 0l-275.827 275.827c-69.359-53.918-156.514-86.025-251.17-86.025-226.216 0-409.6 183.386-409.6 409.6zM409.6 716.8c28.275 0 51.2-22.923 51.2-51.2v-85.333h85.333c28.275 0 51.2-22.923 51.2-51.2 0-28.275-22.925-51.2-51.2-51.2h-85.333v-85.333c0-28.275-22.925-51.2-51.2-51.2-28.277 0-51.2 22.925-51.2 51.2v85.333h-85.333c-28.277 0-51.2 22.925-51.2 51.2 0 28.277 22.923 51.2 51.2 51.2h85.333v85.333c0 28.277 22.923 51.2 51.2 51.2z" />
<glyph unicode="&#xe91c;" glyph-name="search" d="M409.6 836.267c-169.662 0-307.2-137.538-307.2-307.2 0-169.664 137.538-307.2 307.2-307.2 169.664 0 307.2 137.536 307.2 307.2 0 169.662-137.536 307.2-307.2 307.2zM0 529.067c0 226.216 183.384 409.6 409.6 409.6 226.214 0 409.6-183.384 409.6-409.6 0-94.656-32.107-181.811-86.025-251.17l275.827-275.827c19.998-19.994 19.998-52.412 0-72.405-19.994-19.998-52.412-19.998-72.405 0l-275.827 275.827c-69.359-53.918-156.514-86.025-251.17-86.025-226.216 0-409.6 183.386-409.6 409.6z" />
<glyph unicode="&#xe91d;" glyph-name="xmark-light" d="M108.293 920.087c-24.774 24.774-64.939 24.774-89.713 0s-24.773-64.939 0-89.713l403.707-403.707-403.707-403.708c-24.773-24.772-24.773-64.939 0-89.711 24.774-24.777 64.939-24.777 89.713 0l403.707 403.708 403.708-403.708c24.772-24.777 64.939-24.777 89.711 0 24.777 24.772 24.777 64.939 0 89.711l-403.708 403.708 403.708 403.707c24.777 24.773 24.777 64.939 0 89.713-24.772 24.773-64.939 24.773-89.711 0l-403.708-403.707-403.707 403.707z" />
<glyph unicode="&#xe91e;" glyph-name="xmark" d="M29.992 908.675c39.99 39.99 104.826 39.99 144.816 0l819.202-819.198c39.987-39.991 39.987-104.828 0-144.819-39.991-39.987-104.828-39.987-144.819 0l-819.198 819.202c-39.99 39.99-39.99 104.826 0 144.816zM994.010 908.675c39.987-39.99 39.987-104.826 0-144.816l-819.202-819.202c-39.99-39.987-104.826-39.987-144.816 0-39.99 39.991-39.99 104.828 0 144.819l819.198 819.198c39.991 39.99 104.828 39.99 144.819 0z" />
<glyph unicode="&#xe91f;" glyph-name="info" d="M499.81 938.667c40.397 0 73.143-34.35 73.143-76.723v-1.024c0-42.373-32.747-76.723-73.143-76.723s-73.143 34.35-73.143 76.723v1.024c0 42.373 32.747 76.723 73.143 76.723zM499.81 656.325c40.397 0 73.143-34.35 73.143-76.723v-588.211c0-42.372-32.747-76.723-73.143-76.723s-73.143 34.351-73.143 76.723v588.211c0 42.373 32.747 76.723 73.143 76.723z" />
<glyph unicode="&#xe920;" glyph-name="circle-info" d="M512 842.667c-229.751 0-416-186.249-416-416s186.249-416 416-416c229.751 0 416 186.249 416 416s-186.249 416-416 416zM0 426.667c0 282.77 229.23 512 512 512s512-229.23 512-512c0-282.769-229.231-512-512-512s-512 229.231-512 512zM512 666.667c26.509 0 48-21.49 48-48v-0.64c0-26.51-21.491-48-48-48s-48 21.49-48 48v0.64c0 26.51 21.491 48 48 48zM512 506.027c26.509 0 48-21.491 48-48v-224c0-26.509-21.491-48-48-48s-48 21.491-48 48v224c0 26.509 21.491 48 48 48z" />
<glyph unicode="&#xe921;" glyph-name="globe" d="M98.739 474.667h190.156c4.266 113.747 23.579 217.518 53.774 297.121 5.63 14.843 11.739 29.114 18.341 42.63-140.837-54.882-244.409-184.28-262.271-339.751zM512 938.667c282.769 0 512-229.23 512-512s-229.231-512-512-512c-282.77 0-512 229.231-512 512s229.23 512 512 512zM512 842.667c-5.862 0-17.028-2.954-32.772-20.51-15.723-17.533-32.081-45.616-46.797-84.416-25.462-67.121-43.236-158.929-47.463-263.074h254.063c-4.228 104.145-21.999 195.953-47.462 263.074-14.716 38.8-31.074 66.882-46.797 84.416-15.744 17.556-26.91 20.51-32.772 20.51zM735.104 474.667h190.157c-17.86 155.471-121.434 284.87-262.272 339.751 6.605-13.516 12.71-27.787 18.342-42.63 30.195-79.603 49.506-183.374 53.773-297.121zM639.031 378.667h-254.063c4.227-104.145 22.001-195.955 47.463-263.074 14.716-38.801 31.074-66.884 46.797-84.416 15.744-17.557 26.91-20.51 32.772-20.51s17.028 2.953 32.772 20.51c15.723 17.532 32.081 45.615 46.797 84.416 25.463 67.119 43.234 158.929 47.462 263.074zM662.989 38.917c140.838 54.882 244.412 184.277 262.272 339.75h-190.157c-4.267-113.749-23.578-217.519-53.773-297.122-5.632-14.844-11.738-29.111-18.342-42.628zM361.010 38.917c-6.602 13.517-12.711 27.785-18.341 42.628-30.194 79.603-49.507 183.373-53.774 297.122h-190.156c17.862-155.473 121.434-284.868 262.271-339.75z" />
<glyph unicode="&#xe922;" glyph-name="mail" d="M103.491 680.505c-0.717-4.382-1.091-8.887-1.091-13.482v-480.71c0-43.989 34.232-79.646 76.459-79.646h666.283c42.227 0 76.459 35.657 76.459 79.646v480.71c0 4.596-0.375 9.1-1.092 13.482l-299.994-221.351c-65.015-47.97-152.013-47.97-217.027 0l-299.996 221.351zM190.979 746.667l271.699-200.471c29.551-21.804 69.094-21.804 98.645 0l271.697 200.471h-642.041zM0 667.022c0 102.897 80.078 186.311 178.859 186.311h666.283c98.782 0 178.859-83.414 178.859-186.311v-480.71c0-102.899-80.077-186.313-178.859-186.313h-666.283c-98.781 0-178.859 83.413-178.859 186.313v480.71z" />
<glyph unicode="&#xe923;" glyph-name="phone" d="M154.667 800c-8.836 0-16-7.163-16-16 0-222.66 65.086-393.203 179.941-508.058s285.399-179.942 508.059-179.942c8.836 0 16 7.164 16 16v178.146c-47.633 3.934-105.451 13.44-151.351 29.5l-28.523-66.556c-7.565-17.647-24.917-29.090-44.122-29.090-94.345 0-181.854 42.249-245.318 103.445-63.236 60.979-106.681 144.815-106.681 232.555 0 17.225 9.23 33.129 24.185 41.676l73.285 41.877c-17.212 46.79-27.259 107.182-31.323 156.447h-178.153zM42.667 784c0 61.856 50.144 112 112 112h192.005c44.73 0 78.38-35.767 81.001-76.911 3.106-48.756 13.116-108.399 28.297-146.944 13.564-34.432 5.909-83.312-35.252-106.832l-55.975-31.985c7.375-48.123 34.125-97.121 75.248-136.776 40.926-39.467 93.201-66.807 147.947-74.406l19.46 45.402c20.147 47.014 73.357 58.509 110.609 44.527 38.763-14.549 96.525-24.064 143.748-27.072 41.143-2.624 76.911-36.271 76.911-81.003v-192c0-61.854-50.146-112-112-112-241.34 0-438.796 70.912-575.941 208.060-137.145 137.143-208.059 334.6-208.059 575.94z" />
<glyph unicode="&#xe924;" glyph-name="filter" d="M545.711 862.249c19.968 45.064 64.397 76.418 115.998 76.418 51.597 0 96.026-31.354 115.998-76.418h108.561c28.941 0 52.399-23.95 52.399-53.493s-23.458-53.492-52.399-53.492h-108.561c-19.972-45.064-64.401-76.418-115.998-76.418-51.601 0-96.030 31.354-115.998 76.418h-407.98c-28.938 0-52.398 23.95-52.398 53.492s23.459 53.493 52.398 53.493h407.98zM287.439 451.183c-12.402 0-22.456-10.261-22.456-22.925 0-12.659 10.054-22.925 22.456-22.925s22.456 10.266 22.456 22.925c0 12.663-10.054 22.925-22.456 22.925zM171.441 480.158c19.971 45.065 64.398 76.419 115.997 76.419s96.026-31.354 115.997-76.419h482.832c28.941 0 52.399-23.949 52.399-53.491s-23.458-53.491-52.399-53.491h-482.832c-19.971-45.065-64.398-76.42-115.997-76.42s-96.026 31.356-115.997 76.42h-33.71c-28.938 0-52.398 23.949-52.398 53.491s23.459 53.491 52.398 53.491h33.71zM586.854 67.503c-12.403 0-22.455-10.266-22.455-22.925 0-12.663 10.052-22.925 22.455-22.925s22.455 10.261 22.455 22.925c0 12.659-10.052 22.925-22.455 22.925zM470.857 98.070c19.972 45.065 64.397 76.42 115.998 76.42s96.026-31.356 115.998-76.42h183.415c28.941 0 52.399-23.949 52.399-53.491s-23.458-53.495-52.399-53.495h-183.415c-19.972-45.060-64.397-76.416-115.998-76.416s-96.026 31.356-115.998 76.416h-333.126c-28.938 0-52.398 23.953-52.398 53.495s23.459 53.491 52.398 53.491h333.126z" />
<glyph unicode="&#xe925;" glyph-name="exclamation" d="M519.757 938.667c51.413 0 93.090-43.718 93.090-97.648v-469.358c0-53.931-41.677-97.651-93.090-97.651s-93.090 43.721-93.090 97.651v469.358c0 53.929 41.677 97.648 93.090 97.648zM519.757 111.266c51.413 0 93.090-43.721 93.090-97.647v-1.306c0-53.931-41.677-97.647-93.090-97.647s-93.090 43.716-93.090 97.647v1.306c0 53.926 41.677 97.647 93.090 97.647z" />
<glyph unicode="&#xe926;" glyph-name="send" d="M1017.259 828.182c9.088-15.739 8.981-35.155-0.282-50.79l-470.66-794.505c-9.984-16.849-28.838-26.377-48.324-24.414-19.486 1.967-36.062 15.061-42.479 33.566l-155.951 449.502-286.596 317.428c-13.254 14.68-16.676 35.764-8.745 53.882s25.742 29.908 45.519 30.129l923.392 10.351c18.172 0.204 35.042-9.41 44.126-25.149zM405.374 443.495l109.647-316.041 323.968 546.876-433.615-230.836zM767.812 750.416l-605.449-6.787 192.401-213.1 413.048 219.887z" />
<glyph unicode="&#xe927;" glyph-name="ambulance-cover" d="M304.625 685.684c17.336 0 31.39-13.989 31.39-31.246v-106.4h106.865c17.34 0 31.39-13.989 31.39-31.246 0-17.259-14.050-31.245-31.39-31.245h-106.865v-106.368c0-17.259-14.054-31.249-31.39-31.249s-31.39 13.99-31.39 31.249v106.368h-106.862c-17.336 0-31.39 13.986-31.39 31.245 0 17.257 14.054 31.246 31.39 31.246h106.862v106.4c0 17.257 14.054 31.246 31.39 31.246zM76.652 185.801c-11.219 0-24.319 0-35.516 2.159-24.318 4.297-41.136 27.93-41.136 55.829v506.752c-0.021 36.517 20.536 60.126 54.214 60.126h552.847c63.573 0 136.508-70.875 153.327-90.189 35.516-40.787 69.193-81.599 102.827-122.411 5.602-6.43 9.361-10.749 13.077-17.179 9.361-12.884 20.561-25.768 33.66-38.652 5.598-4.295 11.217-8.59 18.697-12.884 2.79-1.077 5.589-2.678 8.388-4.281 2.816-1.612 5.632-3.226 8.452-4.309 3.699-2.126 6.942-3.722 10.18-5.316 3.298-1.626 6.601-3.252 10.377-5.434 11.217-8.589 22.438-17.178 29.918-30.063 26.176-36.514 28.036-88.051 28.036-139.588v-146.018c0-4.297-3.738-8.593-7.479-8.593l-146.138 0.004c1.28-7.68 1.946-15.561 1.946-23.599 0-79.006-64.341-143.049-143.71-143.049s-143.71 64.043-143.71 143.049c0 8.034 0.666 15.919 1.946 23.595h-188.6c1.868-9.203 2.848-18.726 2.848-28.48 0-79.002-64.341-143.049-143.71-143.049s-143.71 64.047-143.71 143.049c0 9.771 0.984 19.311 2.858 28.531h-39.889zM368.303 248.244h242.761c0.905 0 1.805-0.038 2.688-0.115 26.227 34.662 67.917 57.071 114.867 57.071 50.799 0 95.441-26.236 120.998-65.835 9.434 5.636 20.476 8.879 32.277 8.879h79.326v92.117c0 55.36-3.759 85.713-16.363 103.292-1.165 1.626-2.249 3.302-3.251 5.030 0 0-0.235 0.533-2.295 2.466-1.882 1.771-4.122 3.601-7.791 6.443-0.964 0.495-2.103 1.062-3.597 1.796l-0.397 0.196c-2.47 1.216-5.918 2.91-9.899 5.086-2.206 1.003-4.113 1.963-5.653 2.773-2.449 1.289-4.732 2.594-6.012 3.328l-0.205 0.115c-0.845 0.486-1.357 0.777-1.69 0.964-2.33 0.986-4.595 2.112-6.788 3.371-11.213 6.438-19.631 12.894-25.259 17.212l-0.393 0.303c-2.035 1.562-3.977 3.247-5.803 5.047l-0.431 0.427h-301.786v208.304h121.033c-6.033 5.081-12.745 10.372-19.904 15.47-25.877 18.42-46.391 26.191-57.677 26.191h-544.281v-499.718c3.619-0.119 8.141-0.166 13.872-0.166h37.396c9.874 0 19.217-2.27 27.529-6.31 26.162 35.379 68.295 58.338 115.815 58.338 44.654 0 84.552-20.271 110.91-52.075zM739.913 648.186c24.606-28.947 48.623-58.037 72.896-87.486h-186.419v83.322h90.944c7.962 0 15.573 1.474 22.579 4.163zM728.619 81.596c44.698 0 80.93 36.066 80.93 80.559 0 44.489-36.233 80.555-80.93 80.555-44.693 0-80.926-36.066-80.926-80.555 0-44.493 36.233-80.559 80.926-80.559zM257.393 76.715c44.696 0 80.929 36.066 80.929 80.555 0 44.493-36.233 80.559-80.929 80.559s-80.929-36.066-80.929-80.559c0-44.489 36.233-80.555 80.929-80.555z" />
<glyph unicode="&#xe928;" glyph-name="blog" d="M997.581 850.946c-274.176 110.653-421.589-7.437-485.589-87.843-58.253 73.216-185.835 177.67-415.575 112.14-23.75-6.941-47.083-15.040-69.999-24.295-4.667-2.231-8.917-5.041-12.75-8.512-2.25-2.397-4.333-5.124-6-8.016-1.75-2.231-3.25-4.628-4.5-7.189-2-5.041-3.083-10.412-3.167-15.866v-676.968c0.25-4.215 1-8.431 2.333-12.48v-3.14c6.583-16.363 22.583-26.94 40.333-26.692 6 0 11.917 1.408 17.25 4.049 306.176 122.884 407.254-92.471 412.587-104.533 0-1.242 1.498-2.317 2.167-3.392 1.583-3.221 3.584-6.195 5.999-8.841 1.417-1.651 3.085-3.059 4.915-4.297 1.92-1.57 3.917-2.974 6.17-4.215l6.583-2.974c2.748-0.828 5.666-1.404 8.58-1.655 1.668-0.495 3.337-0.823 5.086-1.071 1.664-0.085 3.413-0.085 5.082 0 2.918 0.329 5.751 0.909 8.585 1.651l6.583 2.974c2.249 1.242 4.25 2.645 6.165 4.297 1.749 1.323 3.418 2.812 4.915 4.382 2.419 2.56 4.42 5.372 6.003 8.512l2.163 3.635c4.668 10.825 103.249 229.069 413.828 103.876v-0.081c13.248-5.291 28.331-3.721 40.166 4.378 11.831 8.017 18.748 21.406 18.496 35.618v676.97c0.171 17.271-10.33 32.972-26.415 39.584l0.004-0.004zM85.323 194.475v587.483c8.75 3.14 18.167 6.776 26.667 9.338s11.333 2.975 17.083 4.463c10.917 2.727 21.333 5.702 32 7.603 6.417 1.239 12.333 1.901 18.583 2.727 6.167 0.826 17.667 2.727 26.001 3.388h41c7.5 0 11.334 0 16.833-1.239 5.583-1.239 13.417-1.488 19.834-2.562l15.584-2.975c6-1.239 11.916-2.975 17.667-4.628l13.833-4.215 15.75-6.363 11.916-5.537c4.917-2.562 9.583-5.041 14.083-7.851 4.5-2.727 7.25-3.801 10.417-5.95s8.75-6.115 12.833-9.090c4.083-2.975 5.75-4.049 8.333-6.115 2.583-2.149 8.5-7.438 12.583-10.991 4.084-3.636 3.834-3.14 5.333-4.876 5.582-5.289 10.416-10.578 14.918-15.619l3.831-4.628 8.499-10.577c1.502-1.901 2.586-3.801 3.836-5.537l5.751-8.264 2.999-4.876 4.083-6.528h0.081c0.751-1.239 1.417-2.479 2.001-3.801 0.585-0.909 1.165-1.901 1.668-2.975v-543.013c-71.001 63.876-193.252 121.643-384.002 63.219v-0.013zM938.658 194.475c-190.75 58.423-312.747 0-384-63.467v544.094c18.748 36.362 120.499 200.728 384 107.429v-588.056z" />
<glyph unicode="&#xe929;" glyph-name="compare" d="M512.004 861.221c-240 0-434.558-194.559-434.558-434.558s194.559-434.56 434.558-434.56c240 0 434.56 194.56 434.56 434.56s-194.56 434.558-434.56 434.558zM0 426.663c0 282.772 229.232 512.004 512.004 512.004s512.004-229.232 512.004-512.004c0-282.773-229.231-512.004-512.004-512.004-282.772 0-512.004 229.231-512.004 512.004zM777.796 694.552c10.709-10.636 14.263-26.525 9.105-40.71l-127.095-349.509c-3.895-10.718-12.318-19.174-23.023-23.108l-351.82-129.408c-14.214-5.227-30.172-1.69-40.844 9.058s-14.1 26.726-8.773 40.905l131.427 349.799c3.945 10.499 12.248 18.772 22.761 22.679l347.489 129.117c14.148 5.257 30.063 1.814 40.772-8.822zM433.062 507.81l-95.48-254.118 255.587 94.007 92.331 253.911-252.437-93.8zM560.247 426.744c0-26.688-21.636-48.324-48.324-48.324s-48.324 21.636-48.324 48.324c0 26.692 21.636 48.324 48.324 48.324s48.324-21.632 48.324-48.324z" />
<glyph unicode="&#xe92a;" glyph-name="corporate" d="M347.961 731.133h357.903c21.961 0 39.765-17.804 39.765-39.767v-132.556h-79.531c-51.247 0-92.791-41.543-92.791-92.791v-371.157h-291.625v569.993c0 36.605 29.674 66.278 66.278 66.278zM825.165 558.81v132.556c0 65.888-53.414 119.301-119.3 119.301h-357.903c-80.53 0-145.812-65.283-145.812-145.812v-217.063h-13.521c-76.723 0-138.919-62.195-138.919-138.918v-214.012h-9.942c-21.963 0-39.767-17.805-39.767-39.765 0-21.965 17.804-39.77 39.767-39.77h944.468c21.961 0 39.765 17.805 39.765 39.77 0 21.961-17.805 39.765-39.765 39.765h-39.77v371.157c0 51.248-41.545 92.791-92.787 92.791h-26.513zM666.099 479.275h185.579c7.317 0 13.252-5.935 13.252-13.257v-371.157h-66.278v145.813c0 21.961-17.801 39.765-39.765 39.765-21.961 0-39.765-17.805-39.765-39.765v-145.813h-66.278v371.157c0 7.322 5.935 13.257 13.257 13.257zM202.149 94.861h-72.906v214.012c0 32.798 26.588 59.388 59.385 59.388h13.521v-273.399zM361.217 611.832c0-21.963 17.804-39.767 39.767-39.767h0.53c21.963 0 39.766 17.804 39.766 39.767s-17.803 39.767-39.766 39.767h-0.53c-21.963 0-39.767-17.804-39.767-39.767zM361.217 452.766c0-21.965 17.804-39.77 39.767-39.77h0.53c21.963 0 39.766 17.805 39.766 39.77 0 21.961-17.803 39.765-39.766 39.765h-0.53c-21.963 0-39.767-17.805-39.767-39.765zM361.217 293.696c0-21.965 17.804-39.765 39.767-39.765h0.53c21.963 0 39.766 17.801 39.766 39.765 0 21.961-17.803 39.765-39.766 39.765h-0.53c-21.963 0-39.767-17.805-39.767-39.765z" />
<glyph unicode="&#xe92b;" glyph-name="cover" d="M159.617 938.667c-39.588 0-74.863-21.971-95.771-57.63-20.744-35.379-26.9-82.65-15.527-136.581 25.683-121.794 76.919-237.666 97.941-272.644 14.018-23.322 34.083-39.94 56.953-48.674v-149.743c0-0.593 0.014-1.186 0.042-1.775 6.809-142.758 75.979-264.055 214.216-330.3 0.753-0.358 1.517-0.695 2.292-1.003 52.673-21.035 118.964-30.438 184.389-23.275 65.532 7.172 133.039 31.33 185.22 80.529 42.842 40.397 129.135 134.281 136.205 261.316 4.864 87.347 2.705 205.325 1.148 290.186-0.282 15.401-0.542 29.731-0.738 42.569 36.331 14.845 61.926 50.491 61.926 92.106 0 54.941-44.617 99.48-99.648 99.48s-99.644-44.538-99.644-99.48c0-41.875 25.916-77.708 62.609-92.382 0.213-14.472 0.508-30.555 0.823-47.783 1.549-84.366 3.605-196.178-1.092-280.556-5.389-96.794-72.802-173.397-112.905-211.213-37.5-35.358-88.32-54.724-142.050-60.608-53.333-5.837-106.735 1.963-147.341 17.929-109.841 53.107-164.865 147.597-170.72 265.165v147.9c23.721 8.183 45.244 24.337 61.546 47.125 10.583 14.788 20.241 35.721 28.781 57.353 8.826 22.354 17.516 48.237 25.596 74.687 16.163 52.907 30.427 109.873 38.926 149.11 7.949 36.699 7.036 80.473-8.177 117.017-16.029 38.507-49.737 71.175-103.077 71.175-20.637 0-37.367-16.702-37.367-37.305s16.73-37.305 37.367-37.305c16.411 0 26.801-7.746 34.065-25.197 8.081-19.413 9.659-47.14 4.142-72.617-8.11-37.446-21.868-92.394-37.362-143.113-7.748-25.363-15.794-49.22-23.64-69.093-8.131-20.596-15.080-34.379-20.067-41.348-11.885-16.612-26.341-22.167-37.542-22.001-10.731 0.162-22.383 5.517-30.793 19.511-16.344 27.196-64.755 135.156-88.894 249.627-8.556 40.575-2.256 67.914 6.893 83.519 8.986 15.325 21.041 20.711 31.275 20.711 20.637 0 37.367 16.702 37.367 37.305s-16.73 37.305-37.367 37.305zM863.356 683.749c0 13.735 11.153 24.87 24.909 24.87 13.76 0 24.913-11.135 24.913-24.87s-11.153-24.87-24.913-24.87c-13.756 0-24.909 11.135-24.909 24.87z" />
<glyph unicode="&#xe92c;" glyph-name="extras-cover" d="M519.957 717.021c20.092 0 36.378-16.288 36.378-36.379v-215.315h215.322c20.092 0 36.378-16.29 36.378-36.382s-16.286-36.378-36.378-36.378h-215.322v-215.317c0-20.092-16.286-36.378-36.378-36.378s-36.378 16.286-36.378 36.378v215.317h-215.314c-20.091 0-36.379 16.286-36.379 36.378s16.288 36.382 36.379 36.382h215.314v215.315c0 20.091 16.286 36.379 36.378 36.379zM979.597 430.11c0 254.493-206.306 460.8-460.8 460.8s-460.8-206.307-460.8-460.8 206.307-460.8 460.8-460.8c254.494 0 460.8 206.306 460.8 460.8zM906.837 430.11c0-214.31-173.73-388.041-388.041-388.041s-388.042 173.73-388.042 388.041c0 214.31 173.732 388.043 388.042 388.043s388.041-173.732 388.041-388.043z" />
<glyph unicode="&#xe92d;" glyph-name="guide" d="M789.658 938.667h-555.35c-65.455 0-118.725-53.27-118.725-118.725v-680.477c0-65.455 53.27-118.729 118.725-118.729h101.697v-65.139c0-22.498 18.277-40.93 40.928-40.93s40.929 18.278 40.929 40.93v65.139h371.795c65.455 0 118.724 53.274 118.724 118.729v680.477c0 65.455-53.269 118.725-118.724 118.725zM234.308 102.439c-20.464 0-37.023 16.559-37.023 37.026v680.477c0 20.465 16.559 37.024 37.023 37.024h101.697v-754.527h-101.697zM826.679 139.465c0-20.467-16.559-37.026-37.022-37.026h-371.951v754.527h371.798c20.463 0 37.022-16.559 37.022-37.024v-680.477h0.154zM701.218 716.842h-146.688c-22.498 0-40.93-18.278-40.93-40.929s18.278-40.929 40.93-40.929h146.688c22.494 0 40.926 18.278 40.926 40.929s-18.278 40.929-40.926 40.929zM701.218 506.415h-146.688c-22.498 0-40.93-18.274-40.93-40.926s18.278-40.93 40.93-40.93h146.688c22.494 0 40.926 18.278 40.926 40.93s-18.278 40.926-40.926 40.926z" />
<glyph unicode="&#xe92e;" glyph-name="hospital-cover" d="M512.004 729.695c18.854 0 34.133-15.234 34.133-34.025v-69.376h70.912c18.854 0 34.133-15.234 34.133-34.025s-15.279-34.025-34.133-34.025h-70.912v-69.373c0-18.795-15.279-34.027-34.133-34.027-18.85 0-34.133 15.232-34.133 34.027v69.373h-68.276c-18.851 0-34.133 15.234-34.133 34.025s15.282 34.025 34.133 34.025h68.276v69.376c0 18.792 15.283 34.025 34.133 34.025zM170.667 758.158c0 0 2.395 137.842 150.905 137.842h383.252c0 0 148.51-7.351 148.51-113.95v-714.001h136.533c18.85 0 34.133-15.232 34.133-34.022 0-18.795-15.283-34.027-34.133-34.027h-955.733c-18.851 0-34.133 15.232-34.133 34.027 0 18.79 15.282 34.022 34.133 34.022h136.533v690.109zM238.933 756.605v-688.556h91.022v145.574c0 51.132 81.487 92.604 182.045 92.604 100.518 0 182.046-41.451 182.046-92.604v-145.574h91.021v714.001c0 12.579-5.525 23.22-31.868 33.978-12.454 5.086-25.788 8.238-36.591 10.065-5.239 0.886-9.506 1.398-12.271 1.676-0.764 0.077-1.408 0.136-1.916 0.179h-380.849c-26.121 0-41.436-5.923-50.505-11.475-9.287-5.685-15.929-13.392-20.931-22.387-5.188-9.33-8.181-19.351-9.786-27.501-0.774-3.933-1.15-7.042-1.323-8.876-0.044-0.461-0.073-0.832-0.093-1.105zM625.779 68.049v139.823c-2.125 2.133-6.75 5.871-16.090 10.62-21.487 10.927-55.923 19.686-97.69 19.686-41.783 0-76.22-8.764-97.697-19.691-9.335-4.749-13.958-8.482-16.081-10.62v-139.819h227.557z" />
<glyph unicode="&#xe92f;" glyph-name="insurer" d="M98.729 535.865c11.793 55.834 36.024 119.247 78.419 174.878 62.413 81.899 165.832 149.297 334.856 149.297 169.020 0 272.439-67.397 334.852-149.294 42.394-55.631 66.628-119.043 78.417-174.876-17.395 11.355-36.595 22.811-56.939 33.449-52.023 27.206-115.179 51.005-176.529 51.005-62.323 0-126.733-24.577-179.802-52.73-53.073 28.153-117.484 52.73-179.807 52.73-61.351 0-124.504-23.801-176.529-51.009-20.342-10.639-39.541-22.095-56.939-33.451zM582.421 524.595c37.077 15.922 75.012 26.414 109.385 26.414 45.035 0 96.448-18.032 144.41-43.113 47.424-24.802 87.902-54.601 110.042-73.865 10.33-8.986 24.977-11.051 37.389-5.269 12.407 5.781 20.25 18.325 20.015 32.013-1.348 78.226-27.337 194.444-101.67 291.988-75.563 99.153-199.398 176.595-389.986 176.595-190.59 0-314.425-77.445-389.988-176.6-74.336-97.545-100.324-213.766-101.672-291.992-0.236-13.687 7.607-26.231 20.017-32.013s27.059-3.716 37.387 5.269c22.141 19.268 62.62 49.067 110.044 73.869 47.961 25.084 99.372 43.117 144.405 43.117 34.374 0 72.309-10.492 109.386-26.414-20.132-13.969-37.139-27.319-49.725-38.272-14.44-12.565-15.96-34.458-3.396-48.896s34.457-15.962 48.897-3.396c9.933 8.644 23.603 19.447 39.987 30.989v-404.075l-0.009-0.649c0-17.399-4.309-34.496-13.389-46.4-7.863-10.308-22.14-20.604-52.013-20.604-31.209 0-50.932 10.236-62.794 22.178-12.291 12.373-18.239 28.646-18.239 43.989 0 19.14-15.517 34.658-34.658 34.658s-34.659-15.518-34.659-34.658c0-32.666 12.513-66.803 38.376-92.838 26.292-26.47 64.414-42.645 111.973-42.645 48.894 0 84.649 18.419 107.126 47.881 21.167 27.75 27.537 61.312 27.593 88.094l0.009 0.666v404.403c16.38-11.541 30.050-22.345 39.983-30.989 14.443-12.565 36.335-11.042 48.896 3.396 12.565 14.438 11.046 36.331-3.392 48.896-12.587 10.953-29.594 24.303-49.728 38.272z" />
<glyph unicode="&#xe930;" glyph-name="excluded-treatment" d="M598.059 490.927h-57.455v-58.487c0-20.395-16.239-36.86-36.361-36.86s-36.365 16.465-36.365 36.86v58.487h-57.697c-20.122 0-36.364 16.465-36.364 36.862s16.242 36.861 36.364 36.861h57.697v58.24c0 20.396 16.243 36.861 36.365 36.861s36.361-16.465 36.361-36.861v-58.24h57.455c20.122 0 36.365-16.465 36.365-36.861s-16.243-36.862-36.365-36.862zM287.272 300.233h433.94c20.122 0 36.365-16.465 36.365-36.86 0-20.399-16.243-36.86-36.365-36.86h-433.94c-20.121 0-36.364 16.461-36.364 36.86 0 20.395 16.242 36.86 36.364 36.86zM395.636 165.321h216.968c20.122 0 36.365-16.465 36.365-36.86s-16.243-36.86-36.365-36.86h-216.968c-20.121 0-36.364 16.465-36.364 36.86s16.243 36.86 36.364 36.86v0zM241.696 865.436h75.636c8.727 41.776 45.576 73.231 89.212 73.231h194.91c43.878 0 80.482-31.455 89.212-73.231h75.635c86.545 0 156.851-71.265 156.851-158.749v-633.271c0-87.484-70.306-158.75-156.608-158.75h-524.606c-86.303 0-156.606 71.266-156.606 158.75v633.271c0 87.484 70.303 158.749 156.606 158.749h-0.242zM620.122 846.023c0 10.321-8.486 18.922-18.667 18.922h-194.668c-10.424 0-18.667-8.601-18.667-18.922v-53.817h232.001v53.817zM157.818 73.417c0-46.694 37.576-85.026 83.879-85.026h524.849c46.302 0 83.878 38.089 83.878 85.026v633.271c0 46.937-37.577 85.027-83.878 85.027h-73.698v-36.37c0-20.396-16.243-36.861-36.361-36.861h-304.729c-20.121 0-36.364 16.465-36.364 36.861v36.37h-73.697c-46.303 0-83.879-38.090-83.879-85.027v-633.271z" />
<glyph unicode="&#xe931;" glyph-name="hamburger" d="M0 789.334c0 35.346 28.654 64 64 64h896c35.345 0 64-28.654 64-64s-28.655-64-64-64h-896c-35.346 0-64 28.654-64 64zM0 426.667c0 35.345 28.654 64 64 64h896c35.345 0 64-28.655 64-64s-28.655-64-64-64h-896c-35.346 0-64 28.655-64 64zM0 64c0 35.345 28.654 64 64 64h896c35.345 0 64-28.655 64-64s-28.655-64-64-64h-896c-35.346 0-64 28.655-64 64z" />
<glyph unicode="&#xe932;" glyph-name="plus" d="M512 938.667c49.899 0 90.351-40.452 90.351-90.353v-331.294h331.298c49.899 0 90.351-40.454 90.351-90.353s-40.452-90.351-90.351-90.351h-331.298v-331.298c0-49.899-40.452-90.351-90.351-90.351s-90.353 40.452-90.353 90.351v331.298h-331.294c-49.901 0-90.353 40.452-90.353 90.351s40.452 90.353 90.353 90.353h331.294v331.294c0 49.901 40.454 90.353 90.353 90.353z" />
<glyph unicode="" glyph-name="plus" d="M512 938.667c49.899 0 90.351-40.452 90.351-90.353v-331.294h331.298c49.899 0 90.351-40.454 90.351-90.353s-40.452-90.351-90.351-90.351h-331.298v-331.298c0-49.899-40.452-90.351-90.351-90.351s-90.353 40.452-90.353 90.351v331.298h-331.294c-49.901 0-90.353 40.452-90.353 90.351s40.452 90.353 90.353 90.353h331.294v331.294c0 49.901 40.454 90.353 90.353 90.353z" />
<glyph unicode="xmark-light" glyph-name="xmark-light" d="M108.293 920.087c-24.774 24.774-64.939 24.774-89.713 0s-24.773-64.939 0-89.713l403.707-403.707-403.707-403.708c-24.773-24.772-24.773-64.939 0-89.711 24.774-24.777 64.939-24.777 89.713 0l403.707 403.708 403.708-403.708c24.772-24.777 64.939-24.777 89.711 0 24.777 24.772 24.777 64.939 0 89.711l-403.708 403.708 403.708 403.707c24.777 24.773 24.777 64.939 0 89.713-24.772 24.773-64.939 24.773-89.711 0l-403.708-403.707-403.707 403.707z" />
<glyph unicode="xmark" glyph-name="xmark" d="M29.992 908.675c39.99 39.99 104.826 39.99 144.816 0l819.202-819.198c39.987-39.991 39.987-104.828 0-144.819-39.991-39.987-104.828-39.987-144.819 0l-819.198 819.202c-39.99 39.99-39.99 104.826 0 144.816zM994.010 908.675c39.987-39.99 39.987-104.826 0-144.816l-819.202-819.202c-39.99-39.987-104.826-39.987-144.816 0-39.99 39.991-39.99 104.828 0 144.819l819.198 819.198c39.991 39.99 104.828 39.99 144.819 0z" />
<glyph unicode="send" glyph-name="send" d="M1017.259 828.182c9.088-15.739 8.981-35.155-0.282-50.79l-470.66-794.505c-9.984-16.849-28.838-26.377-48.324-24.414-19.486 1.967-36.062 15.061-42.479 33.566l-155.951 449.502-286.596 317.428c-13.254 14.68-16.676 35.764-8.745 53.882s25.742 29.908 45.519 30.129l923.392 10.351c18.172 0.204 35.042-9.41 44.126-25.149zM405.374 443.495l109.647-316.041 323.968 546.876-433.615-230.836zM767.812 750.416l-605.449-6.787 192.401-213.1 413.048 219.887z" />
<glyph unicode="search-plus" glyph-name="search-plus" d="M409.6 836.267c-169.662 0-307.2-137.538-307.2-307.2 0-169.664 137.538-307.2 307.2-307.2 169.664 0 307.2 137.536 307.2 307.2 0 169.662-137.536 307.2-307.2 307.2zM0 529.067c0 226.216 183.384 409.6 409.6 409.6 226.214 0 409.6-183.384 409.6-409.6 0-94.656-32.107-181.811-86.025-251.17l275.827-275.827c19.998-19.994 19.998-52.412 0-72.405-19.994-19.998-52.412-19.998-72.405 0l-275.827 275.827c-69.359-53.918-156.514-86.025-251.17-86.025-226.216 0-409.6 183.386-409.6 409.6zM409.6 716.8c28.275 0 51.2-22.923 51.2-51.2v-85.333h85.333c28.275 0 51.2-22.923 51.2-51.2 0-28.275-22.925-51.2-51.2-51.2h-85.333v-85.333c0-28.275-22.925-51.2-51.2-51.2-28.277 0-51.2 22.925-51.2 51.2v85.333h-85.333c-28.277 0-51.2 22.925-51.2 51.2 0 28.277 22.923 51.2 51.2 51.2h85.333v85.333c0 28.277 22.923 51.2 51.2 51.2z" />
<glyph unicode="search-minus" glyph-name="search-minus" d="M409.6 836.267c-169.662 0-307.2-137.538-307.2-307.2 0-169.664 137.538-307.2 307.2-307.2 169.664 0 307.2 137.536 307.2 307.2 0 169.662-137.536 307.2-307.2 307.2zM0 529.067c0 226.216 183.384 409.6 409.6 409.6 226.214 0 409.6-183.384 409.6-409.6 0-94.656-32.107-181.811-86.025-251.17l275.827-275.827c19.998-19.994 19.998-52.412 0-72.405-19.994-19.998-52.412-19.998-72.405 0l-275.827 275.827c-69.359-53.918-156.514-86.025-251.17-86.025-226.216 0-409.6 183.386-409.6 409.6zM221.867 529.067c0 28.277 22.923 51.2 51.2 51.2h273.067c28.275 0 51.2-22.923 51.2-51.2 0-28.275-22.925-51.2-51.2-51.2h-273.067c-28.277 0-51.2 22.925-51.2 51.2z" />
<glyph unicode="search" glyph-name="search" d="M409.6 836.267c-169.662 0-307.2-137.538-307.2-307.2 0-169.664 137.538-307.2 307.2-307.2 169.664 0 307.2 137.536 307.2 307.2 0 169.662-137.536 307.2-307.2 307.2zM0 529.067c0 226.216 183.384 409.6 409.6 409.6 226.214 0 409.6-183.384 409.6-409.6 0-94.656-32.107-181.811-86.025-251.17l275.827-275.827c19.998-19.994 19.998-52.412 0-72.405-19.994-19.998-52.412-19.998-72.405 0l-275.827 275.827c-69.359-53.918-156.514-86.025-251.17-86.025-226.216 0-409.6 183.386-409.6 409.6z" />
<glyph unicode="quote" glyph-name="quote" d="M797.606 315.077c125.154 0 226.394 103.386 226.394 229.744s-102.4 229.744-227.554 229.744c-125.158 0-227.558-103.385-227.558-229.744 0-253.889 203.639-459.487 455.113-459.487 0 0-149.073 56.269-226.394 229.743zM455.113 544.821c0 126.359-102.401 229.744-227.557 229.744s-227.556-103.385-227.556-229.744c0-253.889 203.639-459.487 455.112-459.487 0 0-149.073 56.269-226.397 229.743 125.156 0 226.397 103.386 226.397 229.744z" />
<glyph unicode="promise-i" glyph-name="promise-i" d="M507.422 554.666c35.947 0 65.088 28.998 65.088 64.768s-29.141 64.768-65.088 64.768c-35.947 0-65.088-28.998-65.088-64.768s29.141-64.768 65.088-64.768zM507.733 938.667l-422.4-186.816v-279.424c0-253.12 176.96-486.976 411.584-544l56.512-13.76v573.376h-102.144v-448.448c-160.64 71.168-275.2 245.504-275.2 432.832v220.416l331.648 146.368 331.072-146.368v-220.416c-0.555-69.495-15.94-138.069-45.137-201.135-29.193-63.066-71.518-119.172-124.143-164.561l-34.56-29.632 59.584-68.864 34.56 29.632c62.507 53.952 112.777 120.627 147.443 195.571 34.667 74.94 52.937 156.42 53.581 238.989v279.424l-422.4 186.816z" />
<glyph unicode="promise-dollar" glyph-name="promise-dollar" d="M507.84 938.667l-422.507-186.863v-279.492c0.583-83.75 19.325-166.379 54.935-242.185s87.238-142.985 151.325-196.902l34.953-29.193 58.767 69.585-34.953 29.257c-53.946 45.355-97.41 101.871-127.395 165.653-29.984 63.778-45.774 133.308-46.281 203.785v220.47l331.156 146.405 331.153-146.405v-220.47c0-191.411-119.326-369.438-285.508-437.487v145.638c70.417 15.424 120.862 66.769 120.862 129.566 0 92.122-87.706 134.114-169.195 134.114-20.297 0-67.665 3.712-69.713 38.409 1.088 10.142 6.012 19.486 13.76 26.121 7.377 6.877 16.162 12.061 25.749 15.191s19.742 4.128 29.756 2.925c61.517-4.929 94.421-22.792 94.741-22.984l22.729 39.436 23.172 39.114c-4.032 2.369-35.401 19.909-92.058 29.832v115.229h-91.349v-113.116c-28.962-5.939-55.618-20.045-76.819-40.65-27.655-26.951-43.019-63.055-41.035-96.472 3.329-57.037 47.5-123.678 160.874-123.678 35.913 0 77.841-11.332 77.841-43.213 0-23.492-33.801-43.337-73.809-43.337-43.597 0-103.578 30.020-122.911 41.609l-47.18-77.841c38.313-22.519 79.787-39.155 123.038-49.357v-266.692l56.525 13.764c234.684 57.037 411.691 290.953 411.691 544.137v279.236l-422.315 186.863z" />
<glyph unicode="promise-check" glyph-name="promise-check" d="M507.622-85.333l-10.82 2.688c-234.54 57.613-411.469 294.135-411.469 550.054v282.358l422.481 188.899 422.477-188.835 0.32-162.975-455.317-396.299-185.186 172.194 61.964 67.533 125.206-116.437 361.54 315.129v61.26l-331.068 148.060-330.944-147.996v-222.891c0-210.79 141.53-405.517 330.944-457.941 164.126 45.577 297.143 202.534 325.436 385.865l7.040 45.385 90.193-14.144-6.976-45.389c-16.887-108.911-63.945-210.914-135.834-294.451-73.741-85.777-166.43-144.35-268.851-169.506l-11.136-2.56z" />
<glyph unicode="promise-arrow" glyph-name="promise-arrow" d="M507.785 938.667l-422.451-188.823v-328.553h91.34v268.833l331.112 147.986 331.115-147.986v-222.877c0-210.778-141.585-405.491-331.115-457.911-113.036 31.364-213.657 115.981-273.825 230.042 27.203 56.585 128.016 226.974 359.214 234.334l-78.985-57.604v-96.525l273.374 200.28-273.374 200.217v-96.524l78.665-57.607c-156.565-4.353-263.329-71.753-329.002-134.417-52.89-49.916-94.809-110.298-123.087-177.301l-6.849-18.372 8.449-17.664c72.201-151.637 204.826-264.162 354.54-300.838l10.88-2.688 10.82 2.688c234.65 57.609 411.635 294.118 411.635 550.020v282.212l-422.455 189.079z" />
<glyph unicode="plus" glyph-name="plus" d="M512 938.667c49.899 0 90.351-40.452 90.351-90.353v-331.294h331.298c49.899 0 90.351-40.454 90.351-90.353s-40.452-90.351-90.351-90.351h-331.298v-331.298c0-49.899-40.452-90.351-90.351-90.351s-90.353 40.452-90.353 90.351v331.298h-331.294c-49.901 0-90.353 40.452-90.353 90.351s40.452 90.353 90.353 90.353h331.294v331.294c0 49.901 40.454 90.353 90.353 90.353z" />
<glyph unicode="phone" glyph-name="phone" d="M154.667 800c-8.836 0-16-7.163-16-16 0-222.66 65.086-393.203 179.941-508.058s285.399-179.942 508.059-179.942c8.836 0 16 7.164 16 16v178.146c-47.633 3.934-105.451 13.44-151.351 29.5l-28.523-66.556c-7.565-17.647-24.917-29.090-44.122-29.090-94.345 0-181.854 42.249-245.318 103.445-63.236 60.979-106.681 144.815-106.681 232.555 0 17.225 9.23 33.129 24.185 41.676l73.285 41.877c-17.212 46.79-27.259 107.182-31.323 156.447h-178.153zM42.667 784c0 61.856 50.144 112 112 112h192.005c44.73 0 78.38-35.767 81.001-76.911 3.106-48.756 13.116-108.399 28.297-146.944 13.564-34.432 5.909-83.312-35.252-106.832l-55.975-31.985c7.375-48.123 34.125-97.121 75.248-136.776 40.926-39.467 93.201-66.807 147.947-74.406l19.46 45.402c20.147 47.014 73.357 58.509 110.609 44.527 38.763-14.549 96.525-24.064 143.748-27.072 41.143-2.624 76.911-36.271 76.911-81.003v-192c0-61.854-50.146-112-112-112-241.34 0-438.796 70.912-575.941 208.060-137.145 137.143-208.059 334.6-208.059 575.94z" />
<glyph unicode="mail" glyph-name="mail" d="M103.491 680.505c-0.717-4.382-1.091-8.887-1.091-13.482v-480.71c0-43.989 34.232-79.646 76.459-79.646h666.283c42.227 0 76.459 35.657 76.459 79.646v480.71c0 4.596-0.375 9.1-1.092 13.482l-299.994-221.351c-65.015-47.97-152.013-47.97-217.027 0l-299.996 221.351zM190.979 746.667l271.699-200.471c29.551-21.804 69.094-21.804 98.645 0l271.697 200.471h-642.041zM0 667.022c0 102.897 80.078 186.311 178.859 186.311h666.283c98.782 0 178.859-83.414 178.859-186.311v-480.71c0-102.899-80.077-186.313-178.859-186.313h-666.283c-98.781 0-178.859 83.413-178.859 186.313v480.71z" />
<glyph unicode="insurer" glyph-name="insurer" d="M98.729 535.865c11.793 55.834 36.024 119.247 78.419 174.878 62.413 81.899 165.832 149.297 334.856 149.297 169.020 0 272.439-67.397 334.852-149.294 42.394-55.631 66.628-119.043 78.417-174.876-17.395 11.355-36.595 22.811-56.939 33.449-52.023 27.206-115.179 51.005-176.529 51.005-62.323 0-126.733-24.577-179.802-52.73-53.073 28.153-117.484 52.73-179.807 52.73-61.351 0-124.504-23.801-176.529-51.009-20.342-10.639-39.541-22.095-56.939-33.451zM582.421 524.595c37.077 15.922 75.012 26.414 109.385 26.414 45.035 0 96.448-18.032 144.41-43.113 47.424-24.802 87.902-54.601 110.042-73.865 10.33-8.986 24.977-11.051 37.389-5.269 12.407 5.781 20.25 18.325 20.015 32.013-1.348 78.226-27.337 194.444-101.67 291.988-75.563 99.153-199.398 176.595-389.986 176.595-190.59 0-314.425-77.445-389.988-176.6-74.336-97.545-100.324-213.766-101.672-291.992-0.236-13.687 7.607-26.231 20.017-32.013s27.059-3.716 37.387 5.269c22.141 19.268 62.62 49.067 110.044 73.869 47.961 25.084 99.372 43.117 144.405 43.117 34.374 0 72.309-10.492 109.386-26.414-20.132-13.969-37.139-27.319-49.725-38.272-14.44-12.565-15.96-34.458-3.396-48.896s34.457-15.962 48.897-3.396c9.933 8.644 23.603 19.447 39.987 30.989v-404.075l-0.009-0.649c0-17.399-4.309-34.496-13.389-46.4-7.863-10.308-22.14-20.604-52.013-20.604-31.209 0-50.932 10.236-62.794 22.178-12.291 12.373-18.239 28.646-18.239 43.989 0 19.14-15.517 34.658-34.658 34.658s-34.659-15.518-34.659-34.658c0-32.666 12.513-66.803 38.376-92.838 26.292-26.47 64.414-42.645 111.973-42.645 48.894 0 84.649 18.419 107.126 47.881 21.167 27.75 27.537 61.312 27.593 88.094l0.009 0.666v404.403c16.38-11.541 30.050-22.345 39.983-30.989 14.443-12.565 36.335-11.042 48.896 3.396 12.565 14.438 11.046 36.331-3.392 48.896-12.587 10.953-29.594 24.303-49.728 38.272z" />
<glyph unicode="info" glyph-name="info" d="M499.81 938.667c40.397 0 73.143-34.35 73.143-76.723v-1.024c0-42.373-32.747-76.723-73.143-76.723s-73.143 34.35-73.143 76.723v1.024c0 42.373 32.747 76.723 73.143 76.723zM499.81 656.325c40.397 0 73.143-34.35 73.143-76.723v-588.211c0-42.372-32.747-76.723-73.143-76.723s-73.143 34.351-73.143 76.723v588.211c0 42.373 32.747 76.723 73.143 76.723z" />
<glyph unicode="hospital-cover" glyph-name="hospital-cover" d="M512.004 729.695c18.854 0 34.133-15.234 34.133-34.025v-69.376h70.912c18.854 0 34.133-15.234 34.133-34.025s-15.279-34.025-34.133-34.025h-70.912v-69.373c0-18.795-15.279-34.027-34.133-34.027-18.85 0-34.133 15.232-34.133 34.027v69.373h-68.276c-18.851 0-34.133 15.234-34.133 34.025s15.282 34.025 34.133 34.025h68.276v69.376c0 18.792 15.283 34.025 34.133 34.025zM170.667 758.158c0 0 2.395 137.842 150.905 137.842h383.252c0 0 148.51-7.351 148.51-113.95v-714.001h136.533c18.85 0 34.133-15.232 34.133-34.022 0-18.795-15.283-34.027-34.133-34.027h-955.733c-18.851 0-34.133 15.232-34.133 34.027 0 18.79 15.282 34.022 34.133 34.022h136.533v690.109zM238.933 756.605v-688.556h91.022v145.574c0 51.132 81.487 92.604 182.045 92.604 100.518 0 182.046-41.451 182.046-92.604v-145.574h91.021v714.001c0 12.579-5.525 23.22-31.868 33.978-12.454 5.086-25.788 8.238-36.591 10.065-5.239 0.886-9.506 1.398-12.271 1.676-0.764 0.077-1.408 0.136-1.916 0.179h-380.849c-26.121 0-41.436-5.923-50.505-11.475-9.287-5.685-15.929-13.392-20.931-22.387-5.188-9.33-8.181-19.351-9.786-27.501-0.774-3.933-1.15-7.042-1.323-8.876-0.044-0.461-0.073-0.832-0.093-1.105zM625.779 68.049v139.823c-2.125 2.133-6.75 5.871-16.090 10.62-21.487 10.927-55.923 19.686-97.69 19.686-41.783 0-76.22-8.764-97.697-19.691-9.335-4.749-13.958-8.482-16.081-10.62v-139.819h227.557z" />
<glyph unicode="hamburger" glyph-name="hamburger" d="M0 789.334c0 35.346 28.654 64 64 64h896c35.345 0 64-28.654 64-64s-28.655-64-64-64h-896c-35.346 0-64 28.654-64 64zM0 426.667c0 35.345 28.654 64 64 64h896c35.345 0 64-28.655 64-64s-28.655-64-64-64h-896c-35.346 0-64 28.655-64 64zM0 64c0 35.345 28.654 64 64 64h896c35.345 0 64-28.655 64-64s-28.655-64-64-64h-896c-35.346 0-64 28.655-64 64z" />
<glyph unicode="guide" glyph-name="guide" d="M789.658 938.667h-555.35c-65.455 0-118.725-53.27-118.725-118.725v-680.477c0-65.455 53.27-118.729 118.725-118.729h101.697v-65.139c0-22.498 18.277-40.93 40.928-40.93s40.929 18.278 40.929 40.93v65.139h371.795c65.455 0 118.724 53.274 118.724 118.729v680.477c0 65.455-53.269 118.725-118.724 118.725zM234.308 102.439c-20.464 0-37.023 16.559-37.023 37.026v680.477c0 20.465 16.559 37.024 37.023 37.024h101.697v-754.527h-101.697zM826.679 139.465c0-20.467-16.559-37.026-37.022-37.026h-371.951v754.527h371.798c20.463 0 37.022-16.559 37.022-37.024v-680.477h0.154zM701.218 716.842h-146.688c-22.498 0-40.93-18.278-40.93-40.929s18.278-40.929 40.93-40.929h146.688c22.494 0 40.926 18.278 40.926 40.929s-18.278 40.929-40.926 40.929zM701.218 506.415h-146.688c-22.498 0-40.93-18.274-40.93-40.926s18.278-40.93 40.93-40.93h146.688c22.494 0 40.926 18.278 40.926 40.93s-18.278 40.926-40.926 40.926z" />
<glyph unicode="globe" glyph-name="globe" d="M98.739 474.667h190.156c4.266 113.747 23.579 217.518 53.774 297.121 5.63 14.843 11.739 29.114 18.341 42.63-140.837-54.882-244.409-184.28-262.271-339.751zM512 938.667c282.769 0 512-229.23 512-512s-229.231-512-512-512c-282.77 0-512 229.231-512 512s229.23 512 512 512zM512 842.667c-5.862 0-17.028-2.954-32.772-20.51-15.723-17.533-32.081-45.616-46.797-84.416-25.462-67.121-43.236-158.929-47.463-263.074h254.063c-4.228 104.145-21.999 195.953-47.462 263.074-14.716 38.8-31.074 66.882-46.797 84.416-15.744 17.556-26.91 20.51-32.772 20.51zM735.104 474.667h190.157c-17.86 155.471-121.434 284.87-262.272 339.751 6.605-13.516 12.71-27.787 18.342-42.63 30.195-79.603 49.506-183.374 53.773-297.121zM639.031 378.667h-254.063c4.227-104.145 22.001-195.955 47.463-263.074 14.716-38.801 31.074-66.884 46.797-84.416 15.744-17.557 26.91-20.51 32.772-20.51s17.028 2.953 32.772 20.51c15.723 17.532 32.081 45.615 46.797 84.416 25.463 67.119 43.234 158.929 47.462 263.074zM662.989 38.917c140.838 54.882 244.412 184.277 262.272 339.75h-190.157c-4.267-113.749-23.578-217.519-53.773-297.122-5.632-14.844-11.738-29.111-18.342-42.628zM361.010 38.917c-6.602 13.517-12.711 27.785-18.341 42.628-30.194 79.603-49.507 183.373-53.774 297.122h-190.156c17.862-155.473 121.434-284.868 262.271-339.75z" />
<glyph unicode="filter" glyph-name="filter" d="M545.711 862.249c19.968 45.064 64.397 76.418 115.998 76.418 51.597 0 96.026-31.354 115.998-76.418h108.561c28.941 0 52.399-23.95 52.399-53.493s-23.458-53.492-52.399-53.492h-108.561c-19.972-45.064-64.401-76.418-115.998-76.418-51.601 0-96.030 31.354-115.998 76.418h-407.98c-28.938 0-52.398 23.95-52.398 53.492s23.459 53.493 52.398 53.493h407.98zM287.439 451.183c-12.402 0-22.456-10.261-22.456-22.925 0-12.659 10.054-22.925 22.456-22.925s22.456 10.266 22.456 22.925c0 12.663-10.054 22.925-22.456 22.925zM171.441 480.158c19.971 45.065 64.398 76.419 115.997 76.419s96.026-31.354 115.997-76.419h482.832c28.941 0 52.399-23.949 52.399-53.491s-23.458-53.491-52.399-53.491h-482.832c-19.971-45.065-64.398-76.42-115.997-76.42s-96.026 31.356-115.997 76.42h-33.71c-28.938 0-52.398 23.949-52.398 53.491s23.459 53.491 52.398 53.491h33.71zM586.854 67.503c-12.403 0-22.455-10.266-22.455-22.925 0-12.663 10.052-22.925 22.455-22.925s22.455 10.261 22.455 22.925c0 12.659-10.052 22.925-22.455 22.925zM470.857 98.070c19.972 45.065 64.397 76.42 115.998 76.42s96.026-31.356 115.998-76.42h183.415c28.941 0 52.399-23.949 52.399-53.491s-23.458-53.495-52.399-53.495h-183.415c-19.972-45.060-64.397-76.416-115.998-76.416s-96.026 31.356-115.998 76.416h-333.126c-28.938 0-52.398 23.953-52.398 53.495s23.459 53.491 52.398 53.491h333.126z" />
<glyph unicode="extras-cover" glyph-name="extras-cover" d="M519.957 717.021c20.092 0 36.378-16.288 36.378-36.379v-215.315h215.322c20.092 0 36.378-16.29 36.378-36.382s-16.286-36.378-36.378-36.378h-215.322v-215.317c0-20.092-16.286-36.378-36.378-36.378s-36.378 16.286-36.378 36.378v215.317h-215.314c-20.091 0-36.379 16.286-36.379 36.378s16.288 36.382 36.379 36.382h215.314v215.315c0 20.091 16.286 36.379 36.378 36.379zM979.597 430.11c0 254.493-206.306 460.8-460.8 460.8s-460.8-206.307-460.8-460.8 206.307-460.8 460.8-460.8c254.494 0 460.8 206.306 460.8 460.8zM906.837 430.11c0-214.31-173.73-388.041-388.041-388.041s-388.042 173.73-388.042 388.041c0 214.31 173.732 388.043 388.042 388.043s388.041-173.732 388.041-388.043z" />
<glyph unicode="excluded-treatment" glyph-name="excluded-treatment" d="M598.059 490.927h-57.455v-58.487c0-20.395-16.239-36.86-36.361-36.86s-36.365 16.465-36.365 36.86v58.487h-57.697c-20.122 0-36.364 16.465-36.364 36.862s16.242 36.861 36.364 36.861h57.697v58.24c0 20.396 16.243 36.861 36.365 36.861s36.361-16.465 36.361-36.861v-58.24h57.455c20.122 0 36.365-16.465 36.365-36.861s-16.243-36.862-36.365-36.862zM287.272 300.233h433.94c20.122 0 36.365-16.465 36.365-36.86 0-20.399-16.243-36.86-36.365-36.86h-433.94c-20.121 0-36.364 16.461-36.364 36.86 0 20.395 16.242 36.86 36.364 36.86zM395.636 165.321h216.968c20.122 0 36.365-16.465 36.365-36.86s-16.243-36.86-36.365-36.86h-216.968c-20.121 0-36.364 16.465-36.364 36.86s16.243 36.86 36.364 36.86v0zM241.696 865.436h75.636c8.727 41.776 45.576 73.231 89.212 73.231h194.91c43.878 0 80.482-31.455 89.212-73.231h75.635c86.545 0 156.851-71.265 156.851-158.749v-633.271c0-87.484-70.306-158.75-156.608-158.75h-524.606c-86.303 0-156.606 71.266-156.606 158.75v633.271c0 87.484 70.303 158.749 156.606 158.749h-0.242zM620.122 846.023c0 10.321-8.486 18.922-18.667 18.922h-194.668c-10.424 0-18.667-8.601-18.667-18.922v-53.817h232.001v53.817zM157.818 73.417c0-46.694 37.576-85.026 83.879-85.026h524.849c46.302 0 83.878 38.089 83.878 85.026v633.271c0 46.937-37.577 85.027-83.878 85.027h-73.698v-36.37c0-20.396-16.243-36.861-36.361-36.861h-304.729c-20.121 0-36.364 16.465-36.364 36.861v36.37h-73.697c-46.303 0-83.879-38.090-83.879-85.027v-633.271z" />
<glyph unicode="exclamation" glyph-name="exclamation" d="M519.757 938.667c51.413 0 93.090-43.718 93.090-97.648v-469.358c0-53.931-41.677-97.651-93.090-97.651s-93.090 43.721-93.090 97.651v469.358c0 53.929 41.677 97.648 93.090 97.648zM519.757 111.266c51.413 0 93.090-43.721 93.090-97.647v-1.306c0-53.931-41.677-97.647-93.090-97.647s-93.090 43.716-93.090 97.647v1.306c0 53.926 41.677 97.647 93.090 97.647z" />
<glyph unicode="edit" glyph-name="edit" d="M826.842 741.506c-15.249 15.247-39.97 15.247-55.215 0l-368.385-368.386v-55.211h55.212l368.388 368.384c15.245 15.247 15.245 39.966 0 55.213zM700.638 812.494c54.451 54.452 142.737 54.452 197.188 0 54.455-54.452 54.455-142.737 0-197.189l-383.087-383.088c-9.412-9.412-22.178-14.703-35.494-14.703h-126.199c-27.723 0-50.196 22.477-50.196 50.197v126.199c0 13.316 5.289 26.082 14.702 35.494l383.086 383.088zM85.333 568.889c0 27.723 22.473 50.196 50.196 50.196h184.052c27.722 0 50.196-22.473 50.196-50.196s-22.474-50.196-50.196-50.196h-133.856v-418.302h418.302v133.858c0 27.721 22.473 50.197 50.193 50.197 27.725 0 50.197-22.477 50.197-50.197v-184.051c0-27.725-22.473-50.197-50.197-50.197h-518.691c-27.723 0-50.196 22.473-50.196 50.197v518.691z" />
<glyph unicode="cover" glyph-name="cover" d="M159.617 938.667c-39.588 0-74.863-21.971-95.771-57.63-20.744-35.379-26.9-82.65-15.527-136.581 25.683-121.794 76.919-237.666 97.941-272.644 14.018-23.322 34.083-39.94 56.953-48.674v-149.743c0-0.593 0.014-1.186 0.042-1.775 6.809-142.758 75.979-264.055 214.216-330.3 0.753-0.358 1.517-0.695 2.292-1.003 52.673-21.035 118.964-30.438 184.389-23.275 65.532 7.172 133.039 31.33 185.22 80.529 42.842 40.397 129.135 134.281 136.205 261.316 4.864 87.347 2.705 205.325 1.148 290.186-0.282 15.401-0.542 29.731-0.738 42.569 36.331 14.845 61.926 50.491 61.926 92.106 0 54.941-44.617 99.48-99.648 99.48s-99.644-44.538-99.644-99.48c0-41.875 25.916-77.708 62.609-92.382 0.213-14.472 0.508-30.555 0.823-47.783 1.549-84.366 3.605-196.178-1.092-280.556-5.389-96.794-72.802-173.397-112.905-211.213-37.5-35.358-88.32-54.724-142.050-60.608-53.333-5.837-106.735 1.963-147.341 17.929-109.841 53.107-164.865 147.597-170.72 265.165v147.9c23.721 8.183 45.244 24.337 61.546 47.125 10.583 14.788 20.241 35.721 28.781 57.353 8.826 22.354 17.516 48.237 25.596 74.687 16.163 52.907 30.427 109.873 38.926 149.11 7.949 36.699 7.036 80.473-8.177 117.017-16.029 38.507-49.737 71.175-103.077 71.175-20.637 0-37.367-16.702-37.367-37.305s16.73-37.305 37.367-37.305c16.411 0 26.801-7.746 34.065-25.197 8.081-19.413 9.659-47.14 4.142-72.617-8.11-37.446-21.868-92.394-37.362-143.113-7.748-25.363-15.794-49.22-23.64-69.093-8.131-20.596-15.080-34.379-20.067-41.348-11.885-16.612-26.341-22.167-37.542-22.001-10.731 0.162-22.383 5.517-30.793 19.511-16.344 27.196-64.755 135.156-88.894 249.627-8.556 40.575-2.256 67.914 6.893 83.519 8.986 15.325 21.041 20.711 31.275 20.711 20.637 0 37.367 16.702 37.367 37.305s-16.73 37.305-37.367 37.305zM863.356 683.749c0 13.735 11.153 24.87 24.909 24.87 13.76 0 24.913-11.135 24.913-24.87s-11.153-24.87-24.913-24.87c-13.756 0-24.909 11.135-24.909 24.87z" />
<glyph unicode="corporate" glyph-name="corporate" d="M347.961 731.133h357.903c21.961 0 39.765-17.804 39.765-39.767v-132.556h-79.531c-51.247 0-92.791-41.543-92.791-92.791v-371.157h-291.625v569.993c0 36.605 29.674 66.278 66.278 66.278zM825.165 558.81v132.556c0 65.888-53.414 119.301-119.3 119.301h-357.903c-80.53 0-145.812-65.283-145.812-145.812v-217.063h-13.521c-76.723 0-138.919-62.195-138.919-138.918v-214.012h-9.942c-21.963 0-39.767-17.805-39.767-39.765 0-21.965 17.804-39.77 39.767-39.77h944.468c21.961 0 39.765 17.805 39.765 39.77 0 21.961-17.805 39.765-39.765 39.765h-39.77v371.157c0 51.248-41.545 92.791-92.787 92.791h-26.513zM666.099 479.275h185.579c7.317 0 13.252-5.935 13.252-13.257v-371.157h-66.278v145.813c0 21.961-17.801 39.765-39.765 39.765-21.961 0-39.765-17.805-39.765-39.765v-145.813h-66.278v371.157c0 7.322 5.935 13.257 13.257 13.257zM202.149 94.861h-72.906v214.012c0 32.798 26.588 59.388 59.385 59.388h13.521v-273.399zM361.217 611.832c0-21.963 17.804-39.767 39.767-39.767h0.53c21.963 0 39.766 17.804 39.766 39.767s-17.803 39.767-39.766 39.767h-0.53c-21.963 0-39.767-17.804-39.767-39.767zM361.217 452.766c0-21.965 17.804-39.77 39.767-39.77h0.53c21.963 0 39.766 17.805 39.766 39.77 0 21.961-17.803 39.765-39.766 39.765h-0.53c-21.963 0-39.767-17.805-39.767-39.765zM361.217 293.696c0-21.965 17.804-39.765 39.767-39.765h0.53c21.963 0 39.766 17.801 39.766 39.765 0 21.961-17.803 39.765-39.766 39.765h-0.53c-21.963 0-39.767-17.805-39.767-39.765z" />
<glyph unicode="compare" glyph-name="compare" d="M512.004 861.221c-240 0-434.558-194.559-434.558-434.558s194.559-434.56 434.558-434.56c240 0 434.56 194.56 434.56 434.56s-194.56 434.558-434.56 434.558zM0 426.663c0 282.772 229.232 512.004 512.004 512.004s512.004-229.232 512.004-512.004c0-282.773-229.231-512.004-512.004-512.004-282.772 0-512.004 229.231-512.004 512.004zM777.796 694.552c10.709-10.636 14.263-26.525 9.105-40.71l-127.095-349.509c-3.895-10.718-12.318-19.174-23.023-23.108l-351.82-129.408c-14.214-5.227-30.172-1.69-40.844 9.058s-14.1 26.726-8.773 40.905l131.427 349.799c3.945 10.499 12.248 18.772 22.761 22.679l347.489 129.117c14.148 5.257 30.063 1.814 40.772-8.822zM433.062 507.81l-95.48-254.118 255.587 94.007 92.331 253.911-252.437-93.8zM560.247 426.744c0-26.688-21.636-48.324-48.324-48.324s-48.324 21.636-48.324 48.324c0 26.692 21.636 48.324 48.324 48.324s48.324-21.632 48.324-48.324z" />
<glyph unicode="circle-info" glyph-name="circle-info" d="M512 842.667c-229.751 0-416-186.249-416-416s186.249-416 416-416c229.751 0 416 186.249 416 416s-186.249 416-416 416zM0 426.667c0 282.77 229.23 512 512 512s512-229.23 512-512c0-282.769-229.231-512-512-512s-512 229.231-512 512zM512 666.667c26.509 0 48-21.49 48-48v-0.64c0-26.51-21.491-48-48-48s-48 21.49-48 48v0.64c0 26.51 21.491 48 48 48zM512 506.027c26.509 0 48-21.491 48-48v-224c0-26.509-21.491-48-48-48s-48 21.491-48 48v224c0 26.509 21.491 48 48 48z" />
<glyph unicode="chevron-up" glyph-name="chevron-up" d="M454.835 701.655c31.573 31.571 82.756 31.571 114.33 0l431.155-431.157c31.573-31.573 31.573-82.756 0-114.33-31.569-31.569-82.756-31.569-114.325 0l-373.995 373.995-373.994-373.995c-31.571-31.569-82.757-31.569-114.328 0-31.571 31.573-31.571 82.756 0 114.33l431.157 431.157z" />
<glyph unicode="chevron-right" glyph-name="chevron-right" d="M237.191 914.989c31.81 31.571 83.384 31.571 115.194 0l434.423-431.157c31.812-31.573 31.812-82.756 0-114.33l-434.423-431.155c-31.81-31.573-83.384-31.573-115.194 0-31.81 31.569-31.81 82.756 0 114.325l376.825 373.995-376.825 373.994c-31.81 31.571-31.81 82.757 0 114.328z" />
<glyph unicode="chevron-left" glyph-name="chevron-left" d="M786.807 914.989c31.812-31.571 31.812-82.757 0-114.328l-376.826-373.994 376.826-373.995c31.812-31.569 31.812-82.756 0-114.325-31.808-31.573-83.383-31.573-115.191 0l-434.425 431.155c-31.81 31.573-31.81 82.756 0 114.33l434.425 431.157c31.808 31.571 83.383 31.571 115.191 0z" />
<glyph unicode="chevron-down" glyph-name="chevron-down" d="M23.678 701.655c31.571 31.571 82.757 31.571 114.328 0l373.994-373.992 373.995 373.992c31.569 31.571 82.756 31.571 114.325 0 31.573-31.571 31.573-82.757 0-114.328l-431.155-431.159c-31.573-31.569-82.756-31.569-114.33 0l-431.157 431.159c-31.571 31.571-31.571 82.757 0 114.328z" />
<glyph unicode="check" glyph-name="check" d="M998.293 784.959c34.274-34.277 34.274-89.851 0-124.128l-585.144-585.141c-34.277-34.278-89.85-34.278-124.128 0l-263.314 263.313c-34.277 34.274-34.277 89.852 0 124.126 34.277 34.278 89.851 34.278 124.127 0l201.251-201.25 523.078 523.080c34.278 34.277 89.852 34.277 124.13 0z" />
<glyph unicode="calendar-close" glyph-name="calendar-close" d="M926.17 243.503c16.661-16.661 16.661-43.678 0-60.339l-170.667-170.667c-16.661-16.661-43.678-16.661-60.339 0s-16.661 43.678 0 60.339l170.667 170.667c16.661 16.661 43.678 16.661 60.339 0zM695.164 243.503c16.661 16.661 43.678 16.661 60.339 0l170.667-170.667c16.661-16.661 16.661-43.678 0-60.339s-43.678-16.661-60.339 0l-170.667 170.667c-16.661 16.661-16.661 43.678 0 60.339zM85.333 568.889c0 86.402 70.042 156.445 156.445 156.445h540.443c86.404 0 156.446-70.042 156.446-156.445v-156.443c0-23.565-19.102-42.667-42.667-42.667s-42.667 19.102-42.667 42.667v156.443c0 39.274-31.838 71.111-71.113 71.111h-540.443c-39.274 0-71.111-31.837-71.111-71.111v-412.443c0-39.275 31.837-71.113 71.111-71.113h284.392c23.565 0 42.667-19.102 42.667-42.667s-19.102-42.667-42.667-42.667h-284.392c-86.402 0-156.445 70.042-156.445 156.446v412.443zM327.111 853.334c23.564 0 42.667-19.103 42.667-42.667v-128c0-23.564-19.103-42.667-42.667-42.667s-42.667 19.103-42.667 42.667v128c0 23.564 19.102 42.667 42.667 42.667zM696.887 853.334c23.565 0 42.667-19.103 42.667-42.667v-128c0-23.564-19.102-42.667-42.667-42.667s-42.667 19.103-42.667 42.667v128c0 23.564 19.102 42.667 42.667 42.667zM896 455.113h-768v85.332h768v-85.332z" />
<glyph unicode="calendar-check" glyph-name="calendar-check" d="M327.111 853.334c23.564 0 42.667-19.103 42.667-42.667v-85.333h284.443v85.333c0 23.564 19.102 42.667 42.667 42.667s42.667-19.103 42.667-42.667v-85.333h42.667c86.404 0 156.446-70.042 156.446-156.445v-156.404c0-23.565-19.102-42.667-42.667-42.667s-42.667 19.102-42.667 42.667v42.628h-682.667v-298.667c0-39.275 31.837-71.113 71.111-71.113h227.555c23.565 0 42.667-19.102 42.667-42.667s-19.102-42.667-42.667-42.667h-227.555c-86.402 0-156.445 70.042-156.445 156.446v412.443c0 86.402 70.042 156.445 156.445 156.445h42.667v85.333c0 23.564 19.102 42.667 42.667 42.667zM241.778 640c-39.274 0-71.111-31.837-71.111-71.111v-28.444h682.667v28.444c0 39.274-31.838 71.111-71.113 71.111h-540.443zM926.17 243.503c16.661-16.661 16.661-43.678 0-60.339l-170.667-170.667c-16.661-16.661-43.678-16.661-60.339 0l-71.113 71.113c-16.661 16.661-16.661 43.674 0 60.339 16.666 16.661 43.678 16.661 60.339 0l40.943-40.943 140.497 140.497c16.661 16.661 43.678 16.661 60.339 0z" />
<glyph unicode="calendar" glyph-name="calendar" d="M85.333 568.889c0 86.402 70.042 156.445 156.445 156.445h540.443c86.404 0 156.446-70.042 156.446-156.445v-412.443c0-86.404-70.042-156.446-156.446-156.446h-540.443c-86.402 0-156.445 70.042-156.445 156.446v412.443zM241.778 640c-39.274 0-71.111-31.837-71.111-71.111v-412.443c0-39.275 31.837-71.113 71.111-71.113h540.443c39.275 0 71.113 31.838 71.113 71.113v412.443c0 39.274-31.838 71.111-71.113 71.111h-540.443zM327.111 853.334c23.564 0 42.667-19.103 42.667-42.667v-128c0-23.564-19.103-42.667-42.667-42.667s-42.667 19.102-42.667 42.667v128c0 23.564 19.102 42.667 42.667 42.667zM696.887 853.334c23.565 0 42.667-19.103 42.667-42.667v-128c0-23.564-19.102-42.667-42.667-42.667s-42.667 19.102-42.667 42.667v128c0 23.564 19.102 42.667 42.667 42.667zM896 455.113h-768v85.332h768v-85.332z" />
<glyph unicode="blog" glyph-name="blog" d="M997.581 850.946c-274.176 110.653-421.589-7.437-485.589-87.843-58.253 73.216-185.835 177.67-415.575 112.14-23.75-6.941-47.083-15.040-69.999-24.295-4.667-2.231-8.917-5.041-12.75-8.512-2.25-2.397-4.333-5.124-6-8.016-1.75-2.231-3.25-4.628-4.5-7.189-2-5.041-3.083-10.412-3.167-15.866v-676.968c0.25-4.215 1-8.431 2.333-12.48v-3.14c6.583-16.363 22.583-26.94 40.333-26.692 6 0 11.917 1.408 17.25 4.049 306.176 122.884 407.254-92.471 412.587-104.533 0-1.242 1.498-2.317 2.167-3.392 1.583-3.221 3.584-6.195 5.999-8.841 1.417-1.651 3.085-3.059 4.915-4.297 1.92-1.57 3.917-2.974 6.17-4.215l6.583-2.974c2.748-0.828 5.666-1.404 8.58-1.655 1.668-0.495 3.337-0.823 5.086-1.071 1.664-0.085 3.413-0.085 5.082 0 2.918 0.329 5.751 0.909 8.585 1.651l6.583 2.974c2.249 1.242 4.25 2.645 6.165 4.297 1.749 1.323 3.418 2.812 4.915 4.382 2.419 2.56 4.42 5.372 6.003 8.512l2.163 3.635c4.668 10.825 103.249 229.069 413.828 103.876v-0.081c13.248-5.291 28.331-3.721 40.166 4.378 11.831 8.017 18.748 21.406 18.496 35.618v676.97c0.171 17.271-10.33 32.972-26.415 39.584l0.004-0.004zM85.323 194.475v587.483c8.75 3.14 18.167 6.776 26.667 9.338s11.333 2.975 17.083 4.463c10.917 2.727 21.333 5.702 32 7.603 6.417 1.239 12.333 1.901 18.583 2.727 6.167 0.826 17.667 2.727 26.001 3.388h41c7.5 0 11.334 0 16.833-1.239 5.583-1.239 13.417-1.488 19.834-2.562l15.584-2.975c6-1.239 11.916-2.975 17.667-4.628l13.833-4.215 15.75-6.363 11.916-5.537c4.917-2.562 9.583-5.041 14.083-7.851 4.5-2.727 7.25-3.801 10.417-5.95s8.75-6.115 12.833-9.090c4.083-2.975 5.75-4.049 8.333-6.115 2.583-2.149 8.5-7.438 12.583-10.991 4.084-3.636 3.834-3.14 5.333-4.876 5.582-5.289 10.416-10.578 14.918-15.619l3.831-4.628 8.499-10.577c1.502-1.901 2.586-3.801 3.836-5.537l5.751-8.264 2.999-4.876 4.083-6.528h0.081c0.751-1.239 1.417-2.479 2.001-3.801 0.585-0.909 1.165-1.901 1.668-2.975v-543.013c-71.001 63.876-193.252 121.643-384.002 63.219v-0.013zM938.658 194.475c-190.75 58.423-312.747 0-384-63.467v544.094c18.748 36.362 120.499 200.728 384 107.429v-588.056z" />
<glyph unicode="arrow-up" glyph-name="arrow-up" d="M473.89 837.034c21.047 21.733 55.172 21.733 76.22 0l287.437-296.812c21.047-21.734 21.047-56.97 0-78.705s-55.172-21.734-76.215 0l-195.435 201.808v-607.675c0-30.733-24.132-55.65-53.897-55.65s-53.897 24.917-53.897 55.65v607.675l-195.433-201.808c-21.047-21.734-55.172-21.734-76.219 0s-21.047 56.972 0 78.705l287.438 296.812z" />
<glyph unicode="arrow-share" glyph-name="arrow-share" d="M636.446 746.667c-29.457 0-53.333 23.878-53.333 53.333s23.876 53.333 53.333 53.333h248.887c29.457 0 53.333-23.878 53.333-53.333v-248.889c0-29.455-23.876-53.332-53.333-53.332s-53.333 23.877-53.333 53.332v120.131l-246.733-246.734c-20.826-20.826-54.596-20.826-75.426 0-20.826 20.83-20.826 54.601 0 75.426l246.733 246.733h-120.128zM85.333 604.445c0 29.455 23.878 53.333 53.333 53.333h195.555c29.455 0 53.333-23.878 53.333-53.333s-23.878-53.333-53.333-53.333h-142.222v-444.445h444.446v142.221c0 29.457 23.876 53.333 53.333 53.333 29.453 0 53.333-23.876 53.333-53.333v-195.554c0-29.457-23.881-53.333-53.333-53.333h-551.113c-14.145 0-27.71 5.619-37.712 15.62s-15.621 23.569-15.621 37.713v551.111z" />
<glyph unicode="arrow-right-up" glyph-name="arrow-right-up" d="M393.481 711.112c-39.273 0-71.111 31.837-71.111 71.111s31.837 71.111 71.111 71.111h474.073c39.275 0 71.113-31.837 71.113-71.111v-474.075c0-39.275-31.838-71.108-71.113-71.108-39.27 0-71.108 31.834-71.108 71.108v302.398l-589.718-589.715c-27.771-27.772-72.796-27.772-100.566 0-27.771 27.767-27.771 72.794 0 100.565l589.715 589.716h-302.395z" />
<glyph unicode="arrow-right-down" glyph-name="arrow-right-down" d="M106.161 832.506c27.77 27.771 72.795 27.771 100.566 0l589.718-589.715v302.395c0 39.273 31.838 71.111 71.108 71.111 39.275 0 71.113-31.837 71.113-71.111v-474.073c0-39.275-31.838-71.113-71.113-71.113h-474.073c-39.273 0-71.111 31.838-71.111 71.113 0 39.27 31.837 71.108 71.111 71.108h302.395l-589.715 589.718c-27.771 27.771-27.771 72.796 0 100.566z" />
<glyph unicode="arrow-right" glyph-name="arrow-right" d="M546.85 752.215c21.734 21.047 56.973 21.047 78.703 0l296.815-287.438c10.436-10.108 16.299-23.817 16.299-38.11s-5.862-28.002-16.299-38.11l-296.815-287.437c-21.73-21.047-56.969-21.047-78.703 0s-21.734 55.172 0 76.215l201.809 195.435h-607.674c-30.736 0-55.652 24.132-55.652 53.897s24.916 53.897 55.652 53.897h607.674l-201.809 195.433c-21.734 21.047-21.734 55.172 0 76.219z" />
<glyph unicode="arrow-log-out" glyph-name="arrow-log-out" d="M85.333 800c0 29.455 23.878 53.333 53.333 53.333h373.333c29.457 0 53.333-23.878 53.333-53.333s-23.876-53.333-53.333-53.333h-320v-640h320c29.457 0 53.333-23.876 53.333-53.333s-23.876-53.333-53.333-53.333h-373.333c-29.455 0-53.333 23.876-53.333 53.333v746.667zM687.62 624.379c20.83 20.828 54.596 20.828 75.426 0l160-159.999c20.826-20.83 20.826-54.596 0-75.426l-160-160c-20.83-20.826-54.596-20.826-75.426 0-20.826 20.83-20.826 54.596 0 75.426l68.954 68.954h-351.241c-29.455 0-53.333 23.876-53.333 53.333s23.878 53.333 53.333 53.333h351.241l-68.954 68.954c-20.826 20.828-20.826 54.597 0 75.424z" />
<glyph unicode="arrow-log-in" glyph-name="arrow-log-in" d="M85.333 800c0 29.455 23.878 53.333 53.333 53.333h373.333c29.457 0 53.333-23.878 53.333-53.333s-23.876-53.333-53.333-53.333h-320v-640h320c29.457 0 53.333-23.876 53.333-53.333s-23.876-53.333-53.333-53.333h-373.333c-29.455 0-53.333 23.876-53.333 53.333v746.667zM603.046 624.379c20.826-20.828 20.826-54.597 0-75.424l-68.954-68.954h351.241c29.457 0 53.333-23.876 53.333-53.333s-23.876-53.333-53.333-53.333h-351.241l68.954-68.954c20.826-20.83 20.826-54.596 0-75.426-20.83-20.826-54.596-20.826-75.426 0l-159.999 160c-20.828 20.83-20.828 54.596 0 75.426l159.999 159.999c20.83 20.828 54.596 20.828 75.426 0z" />
<glyph unicode="arrow-left-up" glyph-name="arrow-left-up" d="M156.445 853.334h474.075c39.275 0 71.108-31.837 71.108-71.111s-31.834-71.111-71.108-71.111h-302.397l589.715-589.716c27.772-27.772 27.772-72.798 0-100.565-27.767-27.772-72.794-27.772-100.565 0l-589.716 589.715v-302.397c0-39.275-31.837-71.108-71.111-71.108s-71.111 31.834-71.111 71.108v474.075c0 39.274 31.837 71.111 71.111 71.111z" />
<glyph unicode="arrow-left-down" glyph-name="arrow-left-down" d="M917.837 832.506c27.772-27.77 27.772-72.795 0-100.566l-589.715-589.718h302.397c39.275 0 71.108-31.838 71.108-71.108 0-39.275-31.834-71.113-71.108-71.113h-474.075c-39.274 0-71.111 31.838-71.111 71.113v474.073c0 39.273 31.837 71.111 71.111 71.111s71.111-31.837 71.111-71.111v-302.395l589.716 589.715c27.772 27.771 72.798 27.771 100.565 0z" />
<glyph unicode="arrow-left" glyph-name="arrow-left" d="M477.15 752.215c21.734-21.047 21.734-55.171 0-76.219l-201.808-195.433h607.675c30.733 0 55.65-24.132 55.65-53.897s-24.917-53.897-55.65-53.897h-607.675l201.808-195.435c21.734-21.043 21.734-55.168 0-76.215s-56.971-21.047-78.705 0l-296.812 287.437c-21.733 21.047-21.733 55.172 0 76.22l296.812 287.438c21.734 21.047 56.97 21.047 78.705 0z" />
<glyph unicode="arrow-export" glyph-name="arrow-export" d="M474.287 837.713c20.83 20.828 54.596 20.828 75.426 0l160-160c20.826-20.828 20.826-54.597 0-75.424-20.83-20.828-54.596-20.828-75.426 0l-68.954 68.954v-351.242c0-29.457-23.876-53.333-53.333-53.333s-53.333 23.876-53.333 53.333v351.242l-68.954-68.954c-20.828-20.828-54.597-20.828-75.424 0s-20.828 54.597 0 75.424l159.999 160zM138.667 480c29.455 0 53.333-23.876 53.333-53.333v-320h640v320c0 29.457 23.876 53.333 53.333 53.333s53.333-23.876 53.333-53.333v-373.333c0-29.457-23.876-53.333-53.333-53.333h-746.667c-29.455 0-53.333 23.876-53.333 53.333v373.333c0 29.457 23.878 53.333 53.333 53.333z" />
<glyph unicode="arrow-down" glyph-name="arrow-down" d="M512 853.334c29.764 0 53.897-24.916 53.897-55.652v-607.674l195.435 201.809c21.043 21.734 55.168 21.734 76.215 0s21.047-56.973 0-78.703l-287.437-296.815c-21.047-21.73-55.172-21.73-76.22 0l-287.438 296.815c-21.047 21.73-21.047 56.969 0 78.703s55.171 21.734 76.219 0l195.433-201.809v607.674c0 30.736 24.132 55.652 53.897 55.652z" />
<glyph unicode="ambulance-cover" glyph-name="ambulance-cover" d="M304.625 685.684c17.336 0 31.39-13.989 31.39-31.246v-106.4h106.865c17.34 0 31.39-13.989 31.39-31.246 0-17.259-14.050-31.245-31.39-31.245h-106.865v-106.368c0-17.259-14.054-31.249-31.39-31.249s-31.39 13.99-31.39 31.249v106.368h-106.862c-17.336 0-31.39 13.986-31.39 31.245 0 17.257 14.054 31.246 31.39 31.246h106.862v106.4c0 17.257 14.054 31.246 31.39 31.246zM76.652 185.801c-11.219 0-24.319 0-35.516 2.159-24.318 4.297-41.136 27.93-41.136 55.829v506.752c-0.021 36.517 20.536 60.126 54.214 60.126h552.847c63.573 0 136.508-70.875 153.327-90.189 35.516-40.787 69.193-81.599 102.827-122.411 5.602-6.43 9.361-10.749 13.077-17.179 9.361-12.884 20.561-25.768 33.66-38.652 5.598-4.295 11.217-8.59 18.697-12.884 2.79-1.077 5.589-2.678 8.388-4.281 2.816-1.612 5.632-3.226 8.452-4.309 3.699-2.126 6.942-3.722 10.18-5.316 3.298-1.626 6.601-3.252 10.377-5.434 11.217-8.589 22.438-17.178 29.918-30.063 26.176-36.514 28.036-88.051 28.036-139.588v-146.018c0-4.297-3.738-8.593-7.479-8.593l-146.138 0.004c1.28-7.68 1.946-15.561 1.946-23.599 0-79.006-64.341-143.049-143.71-143.049s-143.71 64.043-143.71 143.049c0 8.034 0.666 15.919 1.946 23.595h-188.6c1.868-9.203 2.848-18.726 2.848-28.48 0-79.002-64.341-143.049-143.71-143.049s-143.71 64.047-143.71 143.049c0 9.771 0.984 19.311 2.858 28.531h-39.889zM368.303 248.244h242.761c0.905 0 1.805-0.038 2.688-0.115 26.227 34.662 67.917 57.071 114.867 57.071 50.799 0 95.441-26.236 120.998-65.835 9.434 5.636 20.476 8.879 32.277 8.879h79.326v92.117c0 55.36-3.759 85.713-16.363 103.292-1.165 1.626-2.249 3.302-3.251 5.030 0 0-0.235 0.533-2.295 2.466-1.882 1.771-4.122 3.601-7.791 6.443-0.964 0.495-2.103 1.062-3.597 1.796l-0.397 0.196c-2.47 1.216-5.918 2.91-9.899 5.086-2.206 1.003-4.113 1.963-5.653 2.773-2.449 1.289-4.732 2.594-6.012 3.328l-0.205 0.115c-0.845 0.486-1.357 0.777-1.69 0.964-2.33 0.986-4.595 2.112-6.788 3.371-11.213 6.438-19.631 12.894-25.259 17.212l-0.393 0.303c-2.035 1.562-3.977 3.247-5.803 5.047l-0.431 0.427h-301.786v208.304h121.033c-6.033 5.081-12.745 10.372-19.904 15.47-25.877 18.42-46.391 26.191-57.677 26.191h-544.281v-499.718c3.619-0.119 8.141-0.166 13.872-0.166h37.396c9.874 0 19.217-2.27 27.529-6.31 26.162 35.379 68.295 58.338 115.815 58.338 44.654 0 84.552-20.271 110.91-52.075zM739.913 648.186c24.606-28.947 48.623-58.037 72.896-87.486h-186.419v83.322h90.944c7.962 0 15.573 1.474 22.579 4.163zM728.619 81.596c44.698 0 80.93 36.066 80.93 80.559 0 44.489-36.233 80.555-80.93 80.555-44.693 0-80.926-36.066-80.926-80.555 0-44.493 36.233-80.559 80.926-80.559zM257.393 76.715c44.696 0 80.929 36.066 80.929 80.555 0 44.493-36.233 80.559-80.929 80.559s-80.929-36.066-80.929-80.559c0-44.489 36.233-80.555 80.929-80.555z" />
</font>
</defs>
</svg>
